Loading...
Error

Скачать Муха / The Fly (Курт Нойманн) [1958, ужасы, фантастика, триллер, DVDRip-AVC] [MVO] торрент без регистрации

 
Статистика раздачи
Размер:  2,04 GB   |    Скачан:  137 раз

Полного источника не было: 3 месяца 20 дней

 
Автор Сообщение

leon030982

[] 


Муха / The Fly

Страна: США
Жанр: ужасы, фантастика, триллер
Год выпуска: 1958
Продолжительность: 01:33:47
Перевод: Профессиональный (многоголосый закадровый)
Cубтитры: нет
Оригинальная аудиодорожка: английский
Режиссер: Курт Нойманн

В ролях: Дэвид Хедисон /David Hedison/, Пэтришиа Оуэнс /Patricia Owens/, Винсент Прайс /Vincent Price/, Херберт Маршалл /Herbert Marshall/, Кэтлин Фриман /Kathleen Freeman/, Бетти Лоу Герсон /Betty Lou Gerson/, Чарльз Херберт /Charles Herbert/, Юджин Борден /Eugene Borden/, Хэрри Картер /Harry Carter/, Артур Дюлак /Arthur Dulac/, Бесс Флауэрс /Bess Flowers/, Торбен Мейер /Torben Meyer/, Франц Ройхн /Franz Roehn/, Чарлз Тэннен /Charles Tannen

Описание:
Ученый Андрэ Деламбре, добившийся способа телепортировать живые организмы, ставит опыт на себе и оказывается жертвой чудовищной случайности. Он обменивается набором генов с попавшей в телепортационную камеру мухой и постепенно начинает превращаться в человека-насекомое. Теперь ему необходимо поймать «скрестившуюся» с ним муху, чтобы попытаться запустить процесс в обратном порядке. Ему отчаянно пытаются помочь жена Хелен и все домашние, но проклятая муха ускользает, оставляя Андрэ мутировать в монстра…

IMDb: 7.00 (7 716)
Семпл: 20,6мб
Качество: {by big1987}
Формат видео: MKV
Видео: кодек: h.264, размер кадра: 716x362 @ 848x362, fps: 23.976, битрейт: 2500 Kbps, Bits/(Pixel*Frame): 0.402
Аудио 1: аудиокодек: AC3 2.0, 48 KHz, битрейт аудио: 224 кб/с - Двухголосный
Аудио 2: аудиокодек: AC3 3.1, 48 KHz, битрейт аудио: 384 кб/с - Английский
Размер рипа: 2,03Gb
frame I:991 Avg QP:13.13 size: 69498
frame P:25117 Avg QP:15.91 size: 34670
frame B:108796 Avg QP:19.38 size: 7525
Format : Matroska
Format version : Version 2
File size : 2.04 GiB
Duration : 1h 33mn
Overall bit rate : 3 110 Kbps
Movie name : Муха [1958, DVDRip/AVC] || big1987
Encoded date : UTC 2012-04-02 14:33:06
Writing application : mkvmerge v5.0.1 ('Es ist Sommer') built on Nov 6 2011 16:23:40
Writing library : libebml v1.2.2 + libmatroska v1.3.0
Video
ID : 1
Format : AVC
Format/Info : Advanced Video Codec
Format profile : High@L3.1
Format settings, CABAC : Yes
Format settings, ReFrames : 8 frames
Codec ID : V_MPEG4/ISO/AVC
Duration : 1h 33mn
Bit rate : 2 500 Kbps
Width : 716 pixels
Height : 362 pixels
Display aspect ratio : 2.35:1
Original display aspect ratio : 2.35:1
Frame rate : 23.976 fps
Color space : YUV
Chroma subsampling : 4:2:0
Bit depth : 8 bits
Scan type : Progressive
Bits/(Pixel*Frame) : 0.402
Stream size : 1.60 GiB (78%)
Title : Муха [1958, DVDRip/AVC] || big1987
Writing library : x264 core 122 r2184 5c85e0a
Encoding settings : cabac=1 / ref=8 / deblock=1:-3:-2 / analyse=0x3:0x133 / me=umh / subme=10 / psy=1 / psy_rd=1.00:0.20 / mixed_ref=1 / me_range=32 / chroma_me=1 / trellis=2 / 8x8dct=1 / cqm=0 / deadzone=21,11 / fast_pskip=0 / chroma_qp_offset=-3 / threads=6 / sliced_threads=0 / nr=0 / decimate=0 / interlaced=0 / bluray_compat=0 / constrained_intra=0 / bframes=8 / b_pyramid=2 / b_adapt=2 / b_bias=0 / direct=3 / weightb=1 / open_gop=0 / weightp=2 / keyint=250 / keyint_min=23 / scenecut=40 / intra_refresh=0 / rc_lookahead=60 / rc=2pass / mbtree=1 / bitrate=2500 / ratetol=1.0 / qcomp=0.60 / qpmin=0 / qpmax=69 / qpstep=4 / cplxblur=20.0 / qblur=0.5 / ip_ratio=1.40 / aq=1:1.00
Language : English
Default : Yes
Forced : No
Audio #1
ID : 2
Format : AC-3
Format/Info : Audio Coding 3
Mode extension : CM (complete main)
Codec ID : A_AC3
Duration : 1h 33mn
Bit rate mode : Constant
Bit rate : 224 Kbps
Channel(s) : 2 channels
Channel positions : Front: L R
Sampling rate : 48.0 KHz
Bit depth : 16 bits
Compression mode : Lossy
Stream size : 150 MiB (7%)
Title : MVO [AC3 2.0@224kbps]
Language : Russian
Default : Yes
Forced : No
Audio #2
ID : 3
Format : AC-3
Format/Info : Audio Coding 3
Mode extension : CM (complete main)
Codec ID : A_AC3
Duration : 1h 33mn
Bit rate mode : Constant
Bit rate : 384 Kbps
Channel(s) : 4 channels
Channel positions : Front: L C R, Side: C
Sampling rate : 48.0 KHz
Bit depth : 16 bits
Compression mode : Lossy
Stream size : 258 MiB (12%)
Title : [AC3 3.1@384kbps]
Language : English
Default : No
Forced : No
Фильм имел огромный успех, к тому же оказался самым кассовым фильмом Курта Ньюманна. Но он об этом так и не узнал, ибо умер через месяц после премьеры, за неделю до выхода фильма в широкий прокат.
Курт Ньюманн использовал то, что актриса Пэт Оуэнс боится насекомых, не показывая ей преждевременно грим мухи.
Фильм снят по новелле Джорджа Ланжелена.
Сценарий этого фильма был первой кинематографической работой сценариста Джеймса Клавелла, который впоследствии прославился романом «Сёгун».
Первоначально главная роль была предложена Майклу Ренни, однако он отказался, так как не хотел играть большую часть фильма с закрытым лицом.
Бутафорское оборудование для лаборатории Деламбре обошлось студии всего в 28 тысяч долларов.



Скачать Муха.The.Fly.(Курт.Нойманн).[1958.ужасы.фантастика.триллер.DVDRip-AVC].[MVO].torrent без регистрации
Золото ЗОЛОТАЯ РАЗДАЧА! СКАЧАННОЕ НЕ ЗАСЧИТЫВАЕТСЯ! Золото
Дата: Зарегистрирован   [ Тип: внутренний ] Как тут cкачать?
MAGNET ссылка
MAGNET ссылка


Скачать .torrent

11 KB

Статус: проверено
Скачан: торрент - 137 раз, раздача полностью - 3 раз
Размер: 2,04 GB
Оценка:  - (Голосов: 0)
Поблагодарили: 2
Поделиться ссылкой на эту раздачу с друзьями:
В контактеFacebookОдноклассникиTwitterLivejournalМой МирLiveinternet
 

 
Показать сообщения:    


Вы не можете начинать темы
Вы не можете отвечать на сообщения
Вы не можете редактировать свои сообщения
Вы не можете удалять свои сообщения
Вы не можете голосовать в опросах
Вы не можете прикреплять файлы к сообщениям
Вы можете скачивать файлы