Loading...
Error

Скачать Возвращение Мухи / Return of the Fly (Эдвард Берндс) [1959, ужасы, фантастика, драма, DVDRip-AVC] [DVO] + [Eng] торрент без регистрации

 
Статистика раздачи
Размер:  1,46 GB   |    Скачан:  145 раз
Сидов:  1  [  0 KB/s  ]  
 
Автор Сообщение

leon030982

[] 


Возвращение Мухи
Return of the Fly

Страна: США
Жанр: ужасы, фантастика, драма
Год выпуска: 1959
Продолжительность: 01:17:04
Перевод: Профессиональный (двухголосый закадровый)
Cубтитры: нет
Оригинальная аудиодорожка: английский
Режиссер: Эдвард Берндс

В ролях: Винсент Прайс /Vincent Price/, Бретт Холси /Brett Halsey/, Джон Саттон /John Sutton/, Дэвид Фрэнкхэм /David Frankham/, Дэн Сеймур /Dan Seymour/, Дэниэлла Де Мец /Danielle De Metz/, Джек Дейли /Jack Daly/, Жанин Грандель /Janine Grandel/, Майкл Марк /Michael Mark/, Ричард Флато /Richard Flato/, Грегг Мартелл /Gregg Martell/, Бэрри Бернард /Barry Bernard/, Пэт О'Хара /Pat O'Hara/, Франциско Виллалобос /Francisco Villalobos/, Джоан Коттон /Joan Cotton/, Флоренс Сторм /Florence Strom/, Эд Вольфф /Ed Wolff

Описание:
Прямой сиквел фильма 1958 года. Сын ученого Деламбре продолжает исследования отца по телепортации предметов и живых организмов. Из-за козней продажного ассистента его ждет та же участь — превратиться в гибрид человека и насекомого.
IMDb: 5.50 (1 810)

Семпл: 22,8мб
Качество: {by big1987}
Формат видео: MKV
Видео: кодек: h.264, размер кадра: 712x432 @ 1012x432, fps: 25, битрейт: 2265 Kbps, Bits/(Pixel*Frame): 0.295
Аудио 1: аудиокодек: AC3 3.0, 48 KHz, битрейт аудио: 256 кб/с - Двухголосный
Аудио 2: аудиокодек: AC3 2.0, 48 KHz, битрейт аудио: 192 кб/с - Английский
Размер рипа: 1,46Gb
frame I:713 Avg QP:12.18 size: 54508
frame P:24723 Avg QP:14.44 size: 27114
frame B:90164 Avg QP:17.71 size: 6655
Format : Matroska
Format version : Version 2
File size : 1.46 GiB
Duration : 1h 17mn
Overall bit rate : 2 715 Kbps
Movie name : Возвращение Мухи [1959, DVDRip/AVC] || big1987
Encoded date : UTC 2012-04-01 10:17:25
Writing application : mkvmerge v5.0.1 ('Es ist Sommer') built on Nov 6 2011 16:23:40
Writing library : libebml v1.2.2 + libmatroska v1.3.0
Video
ID : 1
Format : AVC
Format/Info : Advanced Video Codec
Format profile : High@L3.1
Format settings, CABAC : Yes
Format settings, ReFrames : 8 frames
Codec ID : V_MPEG4/ISO/AVC
Duration : 1h 17mn
Bit rate : 2 265 Kbps
Width : 712 pixels
Height : 432 pixels
Display aspect ratio : 2.35:1
Original display aspect ratio : 2.35:1
Frame rate : 25.000 fps
Color space : YUV
Chroma subsampling : 4:2:0
Bit depth : 8 bits
Scan type : Progressive
Bits/(Pixel*Frame) : 0.295
Stream size : 1.19 GiB (82%)
Title : Возвращение Мухи [1959, DVDRip/AVC] || big1987
Writing library : x264 core 122 r2184 5c85e0a
Encoding settings : cabac=1 / ref=8 / deblock=1:-2:-2 / analyse=0x3:0x133 / me=umh / subme=10 / psy=1 / psy_rd=1.00:0.20 / mixed_ref=1 / me_range=24 / chroma_me=1 / trellis=2 / 8x8dct=1 / cqm=0 / deadzone=21,11 / fast_pskip=1 / chroma_qp_offset=-3 / threads=6 / sliced_threads=0 / nr=0 / decimate=0 / interlaced=0 / bluray_compat=0 / constrained_intra=0 / bframes=8 / b_pyramid=2 / b_adapt=2 / b_bias=0 / direct=3 / weightb=1 / open_gop=0 / weightp=2 / keyint=250 / keyint_min=25 / scenecut=40 / intra_refresh=0 / rc_lookahead=60 / rc=2pass / mbtree=1 / bitrate=2265 / ratetol=1.0 / qcomp=0.60 / qpmin=0 / qpmax=69 / qpstep=4 / cplxblur=20.0 / qblur=0.5 / ip_ratio=1.40 / aq=1:1.00
Language : English
Default : Yes
Forced : No
Audio #1
ID : 2
Format : AC-3
Format/Info : Audio Coding 3
Mode extension : CM (complete main)
Codec ID : A_AC3
Duration : 1h 17mn
Bit rate mode : Constant
Bit rate : 256 Kbps
Channel(s) : 3 channels
Channel positions : Front: L C R
Sampling rate : 48.0 KHz
Bit depth : 16 bits
Compression mode : Lossy
Stream size : 141 MiB (9%)
Title : DVO [AC3 3.0@256kbps]
Language : Russian
Default : No
Forced : No
Audio #2
ID : 3
Format : AC-3
Format/Info : Audio Coding 3
Format profile : Dolby Digital
Mode extension : CM (complete main)
Codec ID : A_AC3
Duration : 1h 17mn
Bit rate mode : Constant
Bit rate : 192 Kbps
Channel(s) : 2 channels
Channel positions : Front: L R
Sampling rate : 48.0 KHz
Bit depth : 16 bits
Compression mode : Lossy
Stream size : 106 MiB (7%)
Title : [AC3 2.0@192kbps]
Language : English
Default : No
Forced : No



Скачать Возвращение.Мухи.Return.of.the.Fly.(Эдвард.Берндс).[1959.ужасы.фантастика.драма.DVDRip-AVC].[DVO].+.[Eng].torrent без регистрации
Золото ЗОЛОТАЯ РАЗДАЧА! СКАЧАННОЕ НЕ ЗАСЧИТЫВАЕТСЯ! Золото
Дата: Зарегистрирован   [ Тип: внутренний ] Как тут cкачать?
MAGNET ссылка
MAGNET ссылка


Скачать .torrent

15 KB

Статус: проверено DHT
Скачан: торрент - 145 раз, раздача полностью - 13 раз
Размер: 1,46 GB
Оценка:  - (Голосов: 0)
Поблагодарили: 2
Поделиться ссылкой на эту раздачу с друзьями:
В контактеFacebookОдноклассникиTwitterLivejournalМой МирLiveinternet
 

 

sansimp

[] 

Пораздавайте этот релиз, пожалуйста...
 
Показать сообщения:    


Вы не можете начинать темы
Вы не можете отвечать на сообщения
Вы не можете редактировать свои сообщения
Вы не можете удалять свои сообщения
Вы не можете голосовать в опросах
Вы не можете прикреплять файлы к сообщениям
Вы можете скачивать файлы