Loading...
Error

Скачать Элитный отряд / Tropa de Elite / Elite Squad (Жозе Падилья) [2007, триллер, мелодрама, драма, криминал, HDRip] [Лицензия] торрент без регистрации

 
Статистика раздачи
Размер:  748 MB   |    Скачан:  121 раз
Сидов:  1  [  0 KB/s  ]  
 
Автор Сообщение

leon030982

[] 

Элитный отряд / Tropa de Elite / Elite Squad
Страна: США, Бразилия, Нидерланды
Жанр: триллер, мелодрама, драма, криминал
Год выпуска: 2007
Продолжительность: 01:54:43
Перевод: Профессиональный (многоголосый закадровый) R5
Cубтитры: нет
Режиссер: Жозе Падилья / José Padilha
В ролях: Вагнер Мора, Андре Рамиро, Кайо Жункейра, Мильем Кортас, Фернанда Мачадо, Паоло Вилела, Фернанда Де Фрейтас, Мария Рибейро, Фабио Лаго

Описание: В 1997 году, перед визитом Папы Римского в Рио де-Жанейро, капитан Насцименто из БОПО (Батальона особых полицейских операций) получает задание устранить опасность, исходящую от наркоторговцев, действующих в опасных трущобах поблизости от резиденции Папы. Капитан Насцименто ищет человека, способного заменить его, так как жена капитана беременна и он собирается оставить БОПО и стать наставником новобранцев.
Тем временем, два друга-идеалиста Нето и Матиас начинают службу в военной полиции, рассчитывая стать честными полицейскими и бороться с криминалом. Однако они сталкиваются в военной полиции с коррупцией, недостатком профессионализма и бюрократическим идиотизмом. После серьёзного инцидента в Моро да Бабилония они решают вступить в ряды БОПО.
Пути капитана Насцименто, Нето и Матиаса тесно переплетаются на протяжении нескольких месяцев, вначале в период жёстких тренировок, затем в операции против наркоторговцев. Насцименто верит, что Нето может заменить его, но импульсивная натура Нето затрудняет принятие решения. Позднее кандидатура интеллигентного Матиаса кажется корректным выбором, но Матиасу нужно доказать, что у него есть сердце...

Автор рипа: avatar-aang
Релиз групп:
Сэмпл: http://sendfile.su/273479
Качество видео: HDRip
Формат видео : AVI
Видео: 656x352 (1.86:1), 23.976 fps, XviD build 50 ~774 kbps avg, 0.14 bit/pixel
Аудио: 48 kHz, MPEG Layer 3, 2 ch, ~128.00 kbps avg
General
Complete name : C:\Tropa.de.Elite.Elite.Squad.avi
Format : AVI
Format/Info : Audio Video Interleave
File size : 747 MiB
Duration : 1h 54mn
Overall bit rate : 910 Kbps
Writing application : VirtualDubMod 1.5.10.3 | www.virtualdub-fr.org || (build 2550/release)
Writing library : VirtualDubMod build 2550/release
Video
ID : 0
Format : MPEG-4 Visual
Format profile : Advanced Simple@L5
Format settings, BVOP : 1
Format settings, QPel : No
Format settings, GMC : No warppoints
Format settings, Matrix : Custom
Codec ID : XVID
Codec ID/Hint : XviD
Duration : 1h 54mn
Bit rate : 775 Kbps
Width : 656 pixels
Height : 352 pixels
Display aspect ratio : 1.864
Frame rate : 23.976 fps
Color space : YUV
Chroma subsampling : 4:2:0
Bit depth : 8 bits
Scan type : Progressive
Compression mode : Lossy
Bits/(Pixel*Frame) : 0.140
Stream size : 636 MiB (85%)
Writing library : XviD 1.2.1 (UTC 2008-12-04)
Audio
ID : 1
Format : MPEG Audio
Format version : Version 1
Format profile : Layer 3
Codec ID : 55
Codec ID/Hint : MP3
Duration : 1h 52mn
Bit rate mode : Constant
Bit rate : 128 Kbps
Channel(s) : 2 channels
Sampling rate : 48.0 KHz
Compression mode : Lossy
Stream size : 103 MiB (14%)
Alignment : Aligned on interleaves
Interleave, duration : 42 ms (1.02 video frame)
Interleave, preload duration : 504 ms
Writing library : LAME3.98r
Encoding settings : -m s -V 4 -q 2 -lowpass 17 -b 128



Скачать Элитный.отряд.Tropa.de.Elite.Elite.Squad.(Жозе.Падилья).[2007.триллер.мелодрама.драма.криминал.HDRip].[Лицензия].torrent без регистрации
Золото ЗОЛОТАЯ РАЗДАЧА! СКАЧАННОЕ НЕ ЗАСЧИТЫВАЕТСЯ! Золото
Дата: Зарегистрирован   [ Тип: внутренний ] Как тут cкачать?
MAGNET ссылка
MAGNET ссылка


Скачать .torrent

15 KB

Статус: проверено DHT
Скачан: торрент - 121 раз, раздача полностью - 15 раз
Размер: 748 MB
Оценка:  - (Голосов: 0)
Поблагодарили: 2
Поделиться ссылкой на эту раздачу с друзьями:
В контактеFacebookОдноклассникиTwitterLivejournalМой МирLiveinternet
 

 
Показать сообщения:    


Вы не можете начинать темы
Вы не можете отвечать на сообщения
Вы не можете редактировать свои сообщения
Вы не можете удалять свои сообщения
Вы не можете голосовать в опросах
Вы не можете прикреплять файлы к сообщениям
Вы можете скачивать файлы