Loading...
Error

Скачать Элитный отряд / Tropa de Elite (Жозе Падилья) [2007 г., триллер, мелодрама, драма, криминал, BDRip-AVC] [MVO] + [DVO] + [AVO] + [Original] + [Subs] (Rus, Eng) торрент без регистрации

 
Статистика раздачи
Размер:  4,61 GB   |    Скачан:  124 раза
Сидов:  1  [  0 KB/s  ]  
 
Автор Сообщение

leon030982

[] 

Элитный отряд / Tropa de Elite
«On the streets of Rio only the elite survive.»
Год выпуска: 2007
Выпущено: США, Бразилия, Нидерланды / Costa Films
Жанр: триллер, мелодрама, драма, криминал
Продолжительность: 01:54:43
Перевод: Профессиональный (многоголосый) + Профессиональный (двухголосый / НТВ+) + Авторский (Ю.Сербин) + Португальский (оригинал)
Режиссер: Жозе Падилья
В ролях: Вагнер Мора, Андре Рамиро, Кайо Джункейра, Мильем Кортас, Фернанда Мачадо, Мария Рибейро, Паоло Вилела, Фернанда Де Фрейтас, Андре Фелипе, Фабио Лаго, Патрик Сантос, Роберта Сантьяго
Сюжет: В 1997 году, перед визитом Папы Римского в Рио де-Жанейро, капитан Насцименто из БОПО (Батальона особых полицейских операций) получает задание устранить опасность, исходящую от наркоторговцев, действующих в опасных трущобах поблизости от резиденции Папы. Капитан Насцименто ищет человека, способного заменить его, так как жена капитана беременна и он собирается оставить БОПО и стать наставником новобранцев.
Тем временем, два друга-идеалиста Нето и Матиас начинают службу в военной полиции, рассчитывая стать честными полицейскими и бороться с криминалом. Однако они сталкиваются в военной полиции с коррупцией, недостатком профессионализма и бюрократическим идиотизмом. После серьёзного инцидента в Моро да Бабилония они решают вступить в ряды БОПО.
Пути капитана Насцименто, Нето и Матиаса тесно переплетаются на протяжении нескольких месяцев, вначале в период жёстких тренировок, затем в операции против наркоторговцев. Насцименто верит, что Нето может заменить его, но импульсивная натура Нето затрудняет принятие решения. Позднее кандидатура интеллигентного Матиаса кажется корректным выбором, но Матиасу нужно доказать, что у него есть сердце…
IMDB // КиноПоиск // Сэмпл
Качество видео: BDRip-AVC =>
Формат: MKV
Видео кодек: H.264
Аудио кодек: AC3
Видео: H.264, 984 x 532, 23.976 fps, ~4028 Кбит/с
Аудио #1: AC3, 384 Кбит/с, 48 kHz (6 ch) Russian R5
Аудио #2: AC3, 448 Кбит/с, 48 kHz (6 ch) Russian /
НТВ+
Аудио #3: AC3, 448 Кбит/с, 48 kHz (6 ch) Russian / Ю.Сербин
Аудио #4: AC3, 448 Кбит/с, 48 kHz (6 ch) Portuguese / отдельно
Cубтитры: Русские, Английские

Рип сделан с , автор - спасибо!
За помощь с русскими субтитрами, большое спасибо одногруппникам (, , , )
avs [info]: 984x532p 1:1 @ 2997/125 fps (cfr)
x264 [info]: using SAR=1/1
x264 [info]: using cpu capabilities: MMX2 SSE2Fast SSSE3 Cache64
x264 [info]: profile High, level 4.0
x264 [info]: frame I:940 Avg QP:18.79 size: 66427
x264 [info]: frame P:42046 Avg QP:20.43 size: 34961
x264 [info]: frame B:122062 Avg QP:23.23 size: 15845
x264 [info]: consecutive B-frames: 2.7% 5.7% 10.4% 37.1% 11.2% 23.4% 2.0% 5.2% 1.1% 1.2%
x264 [info]: mb I I16..4: 16.2% 62.5% 21.3%
x264 [info]: mb P I16..4: 5.3% 22.5% 4.4% P16..4: 38.3% 17.9% 3.5% 0.4% 0.2% skip: 7.4%
x264 [info]: mb B I16..4: 0.2% 3.8% 0.7% B16..8: 36.5% 13.0% 3.4% direct: 9.5% skip:33.0% L0:40.7% L1:42.5% BI:16.8%
x264 [info]: 8x8 transform intra:72.4% inter:62.1%
x264 [info]: direct mvs spatial:99.9% temporal:0.1%
x264 [info]: coded y,uvDC,uvAC intra: 81.9% 83.7% 68.2% inter: 34.7% 30.3% 14.7%
x264 [info]: i16 v,h,dc,p: 44% 11% 16% 29%
x264 [info]: i8 v,h,dc,ddl,ddr,vr,hd,vl,hu: 12% 11% 11% 8% 12% 11% 12% 11% 13%
x264 [info]: i4 v,h,dc,ddl,ddr,vr,hd,vl,hu: 28% 9% 6% 7% 11% 10% 11% 8% 10%
x264 [info]: i8c dc,h,v,p: 42% 21% 18% 19%
x264 [info]: Weighted P-Frames: Y:1.9%
x264 [info]: ref P L0: 46.8% 10.2% 17.1% 6.0% 5.2% 3.7% 3.4% 2.0% 1.9% 1.6% 1.7% 0.3% 0.0%
x264 [info]: ref B L0: 78.2% 9.5% 4.3% 2.3% 1.6% 1.4% 1.2% 0.8% 0.5% 0.3%
x264 [info]: ref B L1: 94.8% 5.2%
x264 [info]: kb/s:4028.55
x264 [total]: encoded 165048 frames, 1.28 fps, 4028.55 kb/s
General
Complete name : D:\VIDEO\Tropa de Elite\Tropa.de.Elite.2007.BDRip-AVC.mkv
Format : Matroska
File size : 4.25 GiB
Duration : 1h 54mn
Overall bit rate : 5 304 Kbps
Encoded date : UTC 2010-11-18 16:24:05
Writing application : mkvmerge v3.4.0 ('Rapunzel') built on May 15 2010 09:38:20
Writing library : libebml v0.8.0 + libmatroska v0.9.0
Video
ID : 1
Format : AVC
Format/Info : Advanced Video Codec
Format profile : High@L4.0
Format settings, CABAC : Yes
Format settings, ReFrames : 11 frames
Codec ID : V_MPEG4/ISO/AVC
Duration : 1h 54mn
Bit rate : 3 918 Kbps
Width : 984 pixels
Height : 532 pixels
Display aspect ratio : 1.850
Frame rate : 23.976 fps
Color space : YUV
Chroma subsampling : 4:2:0
Bit depth : 8 bits
Scan type : Progressive
Bits/(Pixel*Frame) : 0.312
Stream size : 3.14 GiB (74%)
Title : Tropa de Elite
Writing library : x264 core 107 r1766 f9f0035
Encoding settings : cabac=1 / ref=11 / deblock=1:-2:-1 / analyse=0x3:0x133 / me=umh / subme=10 / psy=1 / psy_rd=0.90:0.20 / mixed_ref=1 / me_range=32 / chroma_me=0 / trellis=2 / 8x8dct=1 / cqm=0 / deadzone=21,11 / fast_pskip=0 / chroma_qp_offset=-3 / threads=3 / sliced_threads=0 / nr=0 / decimate=0 / interlaced=0 / constrained_intra=0 / bframes=9 / b_pyramid=2 / b_adapt=2 / b_bias=0 / direct=3 / weightb=1 / open_gop=0 / weightp=2 / keyint=250 / keyint_min=23 / scenecut=40 / intra_refresh=0 / rc_lookahead=40 / rc=crf / mbtree=0 / crf=19.0 / qcomp=0.65 / qpmin=10 / qpmax=51 / qpstep=4 / vbv_maxrate=25000 / vbv_bufsize=31250 / crf_max=0.0 / ip_ratio=1.40 / pb_ratio=1.30 / aq=2:1.00 / nal_hrd=none
Language : Portuguese
Audio #1
ID : 2
Format : AC-3
Format/Info : Audio Coding 3
Mode extension : CM (complete main)
Codec ID : A_AC3
Duration : 1h 54mn
Bit rate mode : Constant
Bit rate : 384 Kbps
Channel(s) : 6 channels
Channel positions : Front: L C R, Side: L R, LFE
Sampling rate : 48.0 KHz
Bit depth : 16 bits
Stream size : 315 MiB (7%)
Title : Профессиональный (многоголосый / R5)
Language : Russian
Audio #2
ID : 3
Format : AC-3
Format/Info : Audio Coding 3
Mode extension : CM (complete main)
Codec ID : A_AC3
Duration : 1h 54mn
Bit rate mode : Constant
Bit rate : 448 Kbps
Channel(s) : 6 channels
Channel positions : Front: L C R, Side: L R, LFE
Sampling rate : 48.0 KHz
Bit depth : 16 bits
Stream size : 368 MiB (8%)
Title : Профессиональный (двухголосый / НТВ+)
Language : Russian
Audio #3
ID : 4
Format : AC-3
Format/Info : Audio Coding 3
Mode extension : CM (complete main)
Codec ID : A_AC3
Duration : 1h 54mn
Bit rate mode : Constant
Bit rate : 448 Kbps
Channel(s) : 6 channels
Channel positions : Front: L C R, Side: L R, LFE
Sampling rate : 48.0 KHz
Bit depth : 16 bits
Stream size : 368 MiB (8%)
Title : Авторский (Ю.Сербин)
Language : Russian
Text #1
ID : 5
Format : UTF-8
Codec ID : S_TEXT/UTF8
Codec ID/Info : UTF-8 Plain Text
Title : Русские
Language : Russian
Text #2
ID : 6
Format : UTF-8
Codec ID : S_TEXT/UTF8
Codec ID/Info : UTF-8 Plain Text
Title : Английские
Language : English
Menu
00:00:00.000 : pt:Chapter 1
00:11:46.621 : pt:Chapter 2
00:24:03.108 : pt:Chapter 3
00:37:39.590 : pt:Chapter 4
00:52:08.333 : pt:Chapter 5
01:07:42.099 : pt:Chapter 6
01:21:57.412 : pt:Chapter 7
01:36:44.381 : pt:Chapter 8
01:54:43.626 : pt:Chapter 9



Скачать Элитный.отряд.Tropa.de.Elite.(Жозе.Падилья).[2007.г.триллер.мелодрама.драма.криминал.BDRip-AVC].[MVO].+.[DVO].+.[AVO].+.[Original].+.[Subs].(Rus.Eng).torrent без регистрации
Золото ЗОЛОТАЯ РАЗДАЧА! СКАЧАННОЕ НЕ ЗАСЧИТЫВАЕТСЯ! Золото
Дата: Зарегистрирован   [ Тип: внутренний ] Как тут cкачать?
MAGNET ссылка
MAGNET ссылка


Скачать .torrent

24 KB

Статус: проверено DHT
Скачан: торрент - 124 раз, раздача полностью - 6 раз
Размер: 4,61 GB
Оценка:  - (Голосов: 0)
Поблагодарили: 2
Поделиться ссылкой на эту раздачу с друзьями:
В контактеFacebookОдноклассникиTwitterLivejournalМой МирLiveinternet
 

 
Показать сообщения:    


Вы не можете начинать темы
Вы не можете отвечать на сообщения
Вы не можете редактировать свои сообщения
Вы не можете удалять свои сообщения
Вы не можете голосовать в опросах
Вы не можете прикреплять файлы к сообщениям
Вы можете скачивать файлы