Loading...
Error

Скачать Идиократия / Idiocracy (Майк Джадж) [2006, комедия, HDTVRip] [MVO] торрент без регистрации

 
Статистика раздачи
Размер:  748 MB   |    Скачан:  157 раз
Сидов:  1  [  0 KB/s  ]  
 
Автор Сообщение

leon030982

[] 

Идиократия / Idiocracy


Год выпуска: 2006
Страна: США
Жанр: фантастика, комедия, приключения
Продолжительность: 01:24:08
Перевод: Профессиональный (многоголосый, закадровый)
Субтитры: нет
Режиссер: Майк Джадж / Mike Judge
Сценарий: Майк Джадж / Mike Judge, Итан Коэн / Etan Cohen
Продюсер: Майк Джадж / Mike Judge, Элиза Копловитц / Elysa Koplovitz, Майкл Нельсон / Michael Nelson
Оператор: Тим Сёрстедт / Tim Suhrstedt
Композитор: Теодор Шапиро

В ролях: Люк Уилсон (Joe Bauers), Майя Рудольф (Rita), Дэкс Шепард (Frito), Терри Крюс (President Camacho), Энтони Кампос (Secretary of Defense), Дэвид Херман (Secretary of State), Сонни Кастилло (Prosecutor,), Кевин МакЭфи (Bailiff), Роберт Мусгрейв (Sgt. Keller), Майкл МакКафферти (Officer Collins), Кристофер Райан (Hospital Technician), Джастин Лонг (Doctor)
Сборы в США: $444 093
Сборы в мире: $485 199
Мировая премьера: 1 сентября 2006
Релиз на DVD: 28 января 2010, «Двадцатый Век Фокс СНГ»
Описание: Рядового Джо Бауэрса Пентагон выбирает для участия в сверхсекретной программе по гибернации людей. Проведя в спячке пятьсот лет, он пробуждается и попадает в цивилизацию, где интеллектуальный уровень людей намного ниже того, которым обладает он. В итоге Джо оказывается самым умным человеком на планете…

kinopoisk.ru: 6.739 (1 846)
imdb.com: 6.40 (39 817)
MPAA: R - Лицам до 17 лет обязательно присутствие взрослого
Качество: HDTVRip (HDTVRip 720 by Skazhutin)
Формат: AVI
Видео кодек: XviD
Аудио кодек: MP3
Видео: 672x384 (1.75:1), 23.976 fps, XviD build 55 ~1041 kbps avg, 0.17 bit/pixel
Аудио: 48 kHz, MPEG Layer 3, 2 ch, 192.00 kbps avg
General
Complete name : E:\INTERNET\Idioktaria_HDRVRip_.avi
Format : AVI
Format/Info : Audio Video Interleave
File size : 748 MiB
Duration : 1h 24mn
Overall bit rate : 1 242 Kbps
Writing application : VirtualDubMod 1.5.10.2 (build 2542/release)
Writing library : VirtualDubMod build 2542/release

Video
ID : 0
Format : MPEG-4 Visual
Format profile : Advanced Simple@L5
Format settings, BVOP : 1
Format settings, QPel : No
Format settings, GMC : No warppoints
Format settings, Matrix : Custom
Codec ID : XVID
Codec ID/Hint : XviD
Duration : 1h 24mn
Bit rate : 1 041 Kbps
Width : 672 pixels
Height : 384 pixels
Display aspect ratio : 16:9
Frame rate : 23.976 fps
Color space : YUV
Chroma subsampling : 4:2:0
Bit depth : 8 bits
Scan type : Progressive
Compression mode : Lossy
Bits/(Pixel*Frame) : 0.168
Stream size : 627 MiB (84%)
Writing library : XviD 1.3.0.dev55

Audio
ID : 1
Format : MPEG Audio
Format version : Version 1
Format profile : Layer 3
Codec ID : 55
Codec ID/Hint : MP3
Duration : 1h 24mn
Bit rate mode : Constant
Bit rate : 192 Kbps
Channel(s) : 2 channels
Sampling rate : 48.0 KHz
Compression mode : Lossy
Stream size : 115 MiB (15%)
Alignment : Aligned on interleaves
Interleave, duration : 42 ms (1.00 video frame)
Interleave, preload duration : 504 ms
Writing library : LAME3.98r
Encoding settings : -m s -V 4 -q 2 -lowpass 18.6 -b 192



Скачать Идиократия.Idiocracy.(Майк.Джадж).[2006.комедия.HDTVRip].[MVO].torrent без регистрации
Золото ЗОЛОТАЯ РАЗДАЧА! СКАЧАННОЕ НЕ ЗАСЧИТЫВАЕТСЯ! Золото
Дата: Зарегистрирован   [ Тип: внутренний ] Как тут cкачать?
MAGNET ссылка
MAGNET ссылка


Скачать .torrent

15 KB

Статус: проверено DHT
Скачан: торрент - 157 раз, раздача полностью - 53 раз
Размер: 748 MB
Оценка:  4 (Голосов: 2)
Поблагодарили: 4
Поделиться ссылкой на эту раздачу с друзьями:
В контактеFacebookОдноклассникиTwitterLivejournalМой МирLiveinternet
 

 
Показать сообщения:    


Вы не можете начинать темы
Вы не можете отвечать на сообщения
Вы не можете редактировать свои сообщения
Вы не можете удалять свои сообщения
Вы не можете голосовать в опросах
Вы не можете прикреплять файлы к сообщениям
Вы можете скачивать файлы