Loading...
Error

Скачать Студия 54 / 54 (Марк Кристофер) [1998, драма, история, BDRip-AVC] [MVO] торрент без регистрации

 
Статистика раздачи
Размер:  2,18 GB   |    Скачан:  127 раз
Сидов:  1  [  0 KB/s  ]  
 
Автор Сообщение

Jenek

[] 

Студия 54 / 54 (1998) BDRip-AVC от PowerTracker

Жанр: драма, история
Страна: США
Режиссер: Марк Кристофер
В ролях: Райан Филипп, Сальма Хайек, Нив Кэмпбелл, Майк Майерс, Села Уорд, Брекин Мейер, Шерри Стрингфилд, Эллен Альбертини Дау, Камерон Мэттисон, Ноам Дженкинс ...

Сюжет фильма: «Студия 54» была самым популярным клубом Нью-Йорка. Случайно попасть туда было невозможно. Но оказавшись однажды, ты хотел остаться навсегда. Это история о знаменитом вертепе и его людях. О простом парне, чудом оказавшемся здесь. О наркотиках и беспорядочном сексе. О попытках заставить мечты сбыться любой ценой. Об оборотной стороне славы. О любви и разочарованиях. А также о последствиях всего этого.

Мировая премьера: 28 августа 1998



Продолжительность: 01:40:13
Качество видео: BDRip-AVC
Видео: кодек: x264, размер кадра: 1024x554, битрейт: 2533 кб/с, bit/pixel: 0.186
Аудио #1: язык: Русский , перевод: профессиональный многоголосый закадровый, кодек: AC3 5.1, битрейт: 384.00 кб/с
Аудио #2: язык: Английский , перевод: оригинал, кодек: AC3 5.1, битрейт: 192.00 кб/с
Субтитры: тип: вшитые отключаемые, формат: SRT, язык: Русский, Английский

&
Общее
Уникальный идентификатор : 243052781684169146367059381277713587782 (0xB6DA4356038457059A6236D375095E46)
Полное имя : D:Studio 54.1998.BDRip-AVC.PT.mkv
Формат : Matroska
Версия формата : Version 2
Размер файла : 2,18 Гбайт
Продолжительность : 1 ч. 40 м.
Общий поток : 3110 Кбит/сек
Название фильма : Студия 54 / 54 (1998) BDRip-AVC rip by rulya74
Дата кодирования : UTC 2012-04-06 18:24:19
Программа кодирования : mkvmerge v5.2.1 ('A Far Off Place') built on Jan 2 2012 23:21:10
Библиотека кодирования : libebml v1.2.3 + libmatroska v1.3.0

Видео
Идентификатор : 1
Формат : AVC
Формат/Информация : Advanced Video Codec
Профиль формата : High@L4.1
Параметр CABAC формата : Да
Параметр ReFrames формата : 11 кадров
Идентификатор кодека : V_MPEG4/ISO/AVC
Продолжительность : 1 ч. 40 м.
Битрейт : 2533 Кбит/сек
Ширина : 1024 пикселя
Высота : 554 пикселя
Соотношение сторон : 16:9
Частота кадров : 23,976 кадра/сек
Цветовое пространство : YUV
Субдискретизация насыщенности : 4:2:0
Битовая глубина : 8 бит
Тип развёртки : Прогрессивная
Бит/(Пиксели*Кадры) : 0.186
Размер потока : 1,73 Гбайт (79%)
Библиотека кодирования : x264 core 120 r2164 da19765
Настройки программы : cabac=1 / ref=11 / deblock=1:-3:-3 / analyse=0x3:0x113 / me=umh / subme=9 / psy=1 / psy_rd=1.00:0.00 / mixed_ref=1 / me_range=48 / chroma_me=1 / trellis=2 / 8x8dct=1 / cqm=0 / deadzone=21,11 / fast_pskip=1 / chroma_qp_offset=-2 / threads=6 / sliced_threads=0 / nr=0 / decimate=1 / interlaced=0 / bluray_compat=0 / constrained_intra=0 / bframes=10 / b_pyramid=2 / b_adapt=1 / b_bias=0 / direct=3 / weightb=1 / open_gop=0 / weightp=2 / keyint=240 / keyint_min=22 / scenecut=40 / intra_refresh=0 / rc=2pass / mbtree=0 / bitrate=2533 / ratetol=1.0 / qcomp=0.60 / qpmin=10 / qpmax=51 / qpstep=4 / cplxblur=20.0 / qblur=0.5 / ip_ratio=1.40 / pb_ratio=1.30 / aq=1:1.00
Default : Да
Forced : Нет

Аудио #1
Идентификатор : 2
Формат : AC-3
Формат/Информация : Audio Coding 3
Расширение режима : CM (complete main)
Идентификатор кодека : A_AC3
Продолжительность : 1 ч. 40 м.
Вид битрейта : Постоянный
Битрейт : 384 Кбит/сек
Каналы : 6 каналов
Расположение каналов : Front: L C R, Side: L R, LFE
Частота : 48,0 КГц
Битовая глубина : 16 бит
Метод сжатия : С потерями
Размер потока : 275 Мбайт (12%)
Заголовок : Многоголосый закадровый
Язык : Russian
Default : Да
Forced : Нет

Аудио #2
Идентификатор : 3
Формат : AC-3
Формат/Информация : Audio Coding 3
Расширение режима : CM (complete main)
Идентификатор кодека : A_AC3
Продолжительность : 1 ч. 40 м.
Вид битрейта : Постоянный
Битрейт : 192 Кбит/сек
Каналы : 2 канала
Расположение каналов : Front: L R
Частота : 48,0 КГц
Битовая глубина : 16 бит
Метод сжатия : С потерями
Размер потока : 138 Мбайт (6%)
Заголовок : Оригинал
Язык : English
Default : Нет
Forced : Нет

Текст #1
Идентификатор : 4
Формат : UTF-8
Идентификатор кодека : S_TEXT/UTF8
Идентификатор кодека/Информация : UTF-8 Plain Text
Язык : Russian
Default : Да
Forced : Нет

Текст #2
Идентификатор : 5
Формат : UTF-8
Идентификатор кодека : S_TEXT/UTF8
Идентификатор кодека/Информация : UTF-8 Plain Text
Язык : English
Default : Нет
Forced : Нет



Скачать Студия.54.54.(Марк.Кристофер).[1998.драма.история.BDRip-AVC].[MVO].torrent без регистрации
Золото ЗОЛОТАЯ РАЗДАЧА! СКАЧАННОЕ НЕ ЗАСЧИТЫВАЕТСЯ! Золото
Дата: Зарегистрирован   [ Тип: внутренний ] Как тут cкачать?
MAGNET ссылка
MAGNET ссылка


Скачать .torrent

11 KB

Статус: проверено DHT
Скачан: торрент - 127 раз, раздача полностью - 7 раз
Размер: 2,18 GB
Оценка:  - (Голосов: 0)
Поблагодарили: 1
Поделиться ссылкой на эту раздачу с друзьями:
В контактеFacebookОдноклассникиTwitterLivejournalМой МирLiveinternet
 

 
Показать сообщения:    


Вы не можете начинать темы
Вы не можете отвечать на сообщения
Вы не можете редактировать свои сообщения
Вы не можете удалять свои сообщения
Вы не можете голосовать в опросах
Вы не можете прикреплять файлы к сообщениям
Вы можете скачивать файлы