Loading...
Error

Скачать Последний альянс / The Final Alliance (Марио Ди Лео) [1990, Боевик, мелодрама, SATRip] [DVO] (НТВ-Плюс) торрент без регистрации

 
Статистика раздачи
Размер:  1,37 GB   |    Скачан:  151 раз

Полного источника не было: 24 минуты

 
Автор Сообщение

leon030982

[] 

Последний альянс / The Final Alliance
Страна: США, ЮАР
Жанр: Боевик, мелодрама
Год выпуска: 1990
Продолжительность: 01:27:23
Перевод: Профессиональный (двухголосый закадровый) Доп. инфо о переводе НТВ-Плюс
Cубтитры: нет
Режиссер: Марио Ди Лео / Mario Di Leo
В ролях: Дэвид Хасселхофф /David Hasselhoff/, Бо Хопкинс /Bo Hopkins/, Джини Мур /Jeanie Moore/, Джон Сэксон /John Saxon/, Лен Спэрроухоук, Карл Джонсон /Karl Johnson/, Фрэнк Нотаро /Frank Notaro/, Джефф Фэннелл, Сильвано Аркитто, Том Хоскинс, Стид Тэйлор, Аллэн Пирс, Кэрен Брук

Описание: В родной городок, где все местные считают героя погибшим, возвращается Дэвид Хэсселхофф с ручной пумой. Никто из жителей не решается дать отпор банде вымогателей терроризирующей город. Ну а герой, которого все уже прозвали Чужак, берет в руки динамит и начинает наводить порядок. Есть и любовная линия с местной владелицей магазинчика, которая просит у него защиты.


Семпл

Качество видео: SATRip
Формат видео: AVI
Видео: 720x544 , 25 fps, XviD build 50, 2104 kbps avg, 0.22 bit/pixel
Аудио: 48 kHz, MPEG Layer 3, 2 ch, 128 kbps avg
General
Complete name : C:\Documents and Settings\Алекс\Мои документы\Мои раздачи\Последний альянс\Posledny.Al'yans.avi
Format : AVI
Format/Info : Audio Video Interleave
File size : 1.37 GiB
Duration : 1h 27mn
Overall bit rate : 2 240 Kbps
Writing application : VirtualDubMod 1.5.4.1 (build 2178/release)
Writing library : VirtualDubMod build 2178/release
Video
ID : 0
Format : MPEG-4 Visual
Format profile : Advanced Simple@L5
Format settings, BVOP : Yes
Format settings, QPel : No
Format settings, GMC : No warppoints
Format settings, Matrix : Custom
Codec ID : XVID
Codec ID/Hint : XviD
Duration : 1h 27mn
Bit rate : 2 105 Kbps
Width : 720 pixels
Height : 544 pixels
Display aspect ratio : 4:3
Frame rate : 25.000 fps
Resolution : 8 bits
Colorimetry : 4:2:0
Scan type : Progressive
Bits/(Pixel*Frame) : 0.215
Stream size : 1.28 GiB (94%)
Writing library : XviD 1.2.1 (UTC 2008-12-04)
Audio
ID : 1
Format : MPEG Audio
Format version : Version 1
Format profile : Layer 3
Mode : Joint stereo
Codec ID : 55
Codec ID/Hint : MP3
Duration : 1h 27mn
Bit rate mode : Constant
Bit rate : 128 Kbps
Channel(s) : 2 channels
Sampling rate : 48.0 KHz
Stream size : 80.0 MiB (6%)
Alignment : Aligned on interleaves
Interleave, duration : 80 ms (2.00 video frames)
Interleave, preload duration : 504 ms
Writing library : LAME3.98.



Скачать Последний.альянс.The.Final.Alliance.(Марио.Ди.Лео).[1990.Боевик.мелодрама.SATRip].[DVO].(НТВ-Плюс).torrent без регистрации
Золото ЗОЛОТАЯ РАЗДАЧА! СКАЧАННОЕ НЕ ЗАСЧИТЫВАЕТСЯ! Золото
Дата: Зарегистрирован   [ Тип: внутренний ] Как тут cкачать?
MAGNET ссылка
MAGNET ссылка


Скачать .torrent

14 KB

Статус: проверено DHT
Скачан: торрент - 151 раз, раздача полностью - 3 раз
Размер: 1,37 GB
Оценка:  - (Голосов: 0)
Поблагодарили: 2
Поделиться ссылкой на эту раздачу с друзьями:
В контактеFacebookОдноклассникиTwitterLivejournalМой МирLiveinternet
 

 
Показать сообщения:    


Вы не можете начинать темы
Вы не можете отвечать на сообщения
Вы не можете редактировать свои сообщения
Вы не можете удалять свои сообщения
Вы не можете голосовать в опросах
Вы не можете прикреплять файлы к сообщениям
Вы можете скачивать файлы