Loading...
Error

Скачать Долгая Страстная пятница / The Long Good Friday (Джон Маккензи) [1980, триллер, драма, криминал, детектив, HDRip] [MVO] (Пятый канал) торрент без регистрации

 
Статистика раздачи
Размер:  1,46 GB   |    Скачан:  141 раз
Сидов:  1  [  0 KB/s  ]  
 
Автор Сообщение

leon030982

[] 

Долгая Страстная пятница / The Long Good Friday
Страна: Великобритания
Жанр: триллер, драма, криминал, детектив
Год выпуска: 1980
Продолжительность: 01:54:14
Перевод: Профессиональный (многоголосый закадровый) Пятый канал
Субтитры: нет
Режиссер: Джон Маккензи / John Mackenzie
В ролях: Боб Хоскинс, , Дейв Кинг, Брайан Маршалл, Дерек Томпсон, Эдди Константин, Пол Фримен, Лео Долан, Кевин МакНэлли, Пэтти Лав
Описание: В жизни Гарольда случается Один Очень Неудачный день…
Кинопоиск | IMDb | Сэмпл | |

Качество видео: HDRip (исходник BDRip 720p)
Формат видео: AVI
Видео: 720x432 (1.67:1), 23.976 fps, XviD build 50 ~1628 kbps avg, 0.22 bit/pixel
Аудио: 48 kHz, AC3 Dolby Digital, 2/0 (L,R) ch, ~192 kbps
Общее
Полное имя : dolgaya_strastnaya_pyatnica_hdrip_1.46.avi
Формат : AVI
Формат/Информация : Audio Video Interleave
Размер файла : 1,46 Гбайт
Продолжительность : 1 ч. 54 м.
Общий поток : 1830 Кбит/сек
Программа кодирования : VirtualDubMod 1.5.10.3 | www.virtualdub-fr.org || (build 2550/release)
Библиотека кодирования : VirtualDubMod build 2550/release
Видео
Идентификатор : 0
Формат : MPEG-4 Visual
Профиль формата : Advanced Simple@L5
Параметр BVOP формата : 1
Параметр QPel формата : Нет
Параметр GMC формата : Без точки перехода
Параметр матрицы формата : Default (MPEG)
Идентификатор кодека : XVID
Идентификатор кодека/Подсказка : XviD
Продолжительность : 1 ч. 54 м.
Битрейт : 1629 Кбит/сек
Ширина : 720 пикс.
Высота : 432 пикс.
Соотношение сторон : 1,667
Частота кадров : 23,976 кадр/сек
Цветовое пространство : YUV
Подвыборка цветности : 4:2:0
Битовая глубина : 8 бит
Тип развёртки : Прогрессивная
Метод сжатия : С потерями
Бит/(Пиксели*Кадры) : 0.218
Размер потока : 1,30 Гбайт (89%)
Библиотека кодирования : XviD 1.2.1 (UTC 2008-12-04)
Аудио
Идентификатор : 1
Формат : AC-3
Формат/Информация : Audio Coding 3
Расширение режима : CM (complete main)
Идентификатор кодека : 2000
Продолжительность : 1 ч. 54 м.
Вид битрейта : Постоянный
Битрейт : 192 Кбит/сек
Канал(ы) : 2 канала(ов)
Расположение каналов : Front: L R
Частота : 48,0 КГц
Битовая глубина : 16 бит
Метод сжатия : С потерями
Размер потока : 157 Мбайт (10%)
Выравнивание : Разделение по промежуткам
Продолжительность промежутка : 42 мс. (1,00 видеокадр)
Время предзагрузки промежутка : 500 ms



Скачать Долгая.Страстная.пятница.The.Long.Good.Friday.(Джон.Маккензи).[1980.триллер.драма.криминал.детектив.HDRip].[MVO].(Пятый.канал).torrent без регистрации
Золото ЗОЛОТАЯ РАЗДАЧА! СКАЧАННОЕ НЕ ЗАСЧИТЫВАЕТСЯ! Золото
Дата: Зарегистрирован   [ Тип: внутренний ] Как тут cкачать?
MAGNET ссылка
MAGNET ссылка


Скачать .torrent

15 KB

Статус: проверено DHT
Скачан: торрент - 141 раз, раздача полностью - 5 раз
Размер: 1,46 GB
Оценка:  - (Голосов: 0)
Поблагодарили: 1
Поделиться ссылкой на эту раздачу с друзьями:
В контактеFacebookОдноклассникиTwitterLivejournalМой МирLiveinternet
 

 
Показать сообщения:    


Вы не можете начинать темы
Вы не можете отвечать на сообщения
Вы не можете редактировать свои сообщения
Вы не можете удалять свои сообщения
Вы не можете голосовать в опросах
Вы не можете прикреплять файлы к сообщениям
Вы можете скачивать файлы