Loading...
Error

Скачать Долгая Страстная пятница / The Long Good Friday (Джон Маккензи) [1980, триллер, драма, криминал, детектив, HDRip] [AVO] (Карцев) торрент без регистрации

 
Статистика раздачи
Размер:  744 MB   |    Скачан:  137 раз
Сидов:  1  [  0 KB/s  ]  
 
Автор Сообщение

leon030982

[] 

Долгая Страстная пятница / The Long Good Friday
Страна: Великобритания
Жанр: триллер, драма, криминал, детектив
Год выпуска: 1980
Продолжительность: 01:54:14
Перевод: Авторский (одноголосый закадровый)
Субтитры: нет
Режиссер: Джон Маккензи / John Mackenzie
В ролях: Боб Хоскинс, , Дейв Кинг, Брайан Маршалл, Дерек Томпсон, Эдди Константин, Пол Фримен, Лео Долан, Кевин МакНэлли, Пэтти Лав
Описание: В жизни Гарольда случается Один Очень Неудачный день…
Кинопоиск | IMDb | Сэмпл | |

Качество видео: HDRip (исходник )
Формат видео: AVI
Видео: 560x336 (1.67:1), 23.976 fps, XviD build 50 ~773 kbps avg, 0.17 bit/pixel
Аудио: 48 kHz, MPEG Layer 3, 2 ch, ~128.00 kbps avg
Общее
Полное имя : dolgaya_strastnaya_pyatnica_hdrip_745.avi
Формат : AVI
Формат/Информация : Audio Video Interleave
Размер файла : 744 Мбайт
Продолжительность : 1 ч. 54 м.
Общий поток : 911 Кбит/сек
Программа кодирования : VirtualDubMod 1.5.10.3 | www.virtualdub-fr.org || (build 2550/release)
Библиотека кодирования : VirtualDubMod build 2550/release
Видео
Идентификатор : 0
Формат : MPEG-4 Visual
Профиль формата : Advanced Simple@L5
Параметр BVOP формата : 1
Параметр QPel формата : Нет
Параметр GMC формата : Без точки перехода
Параметр матрицы формата : Default (MPEG)
Идентификатор кодека : XVID
Идентификатор кодека/Подсказка : XviD
Продолжительность : 1 ч. 54 м.
Битрейт : 774 Кбит/сек
Ширина : 560 пикс.
Высота : 336 пикс.
Соотношение сторон : 1,667
Частота кадров : 23,976 кадр/сек
Цветовое пространство : YUV
Подвыборка цветности : 4:2:0
Битовая глубина : 8 бит
Тип развёртки : Прогрессивная
Метод сжатия : С потерями
Бит/(Пиксели*Кадры) : 0.171
Размер потока : 632 Мбайт (85%)
Библиотека кодирования : XviD 1.2.1 (UTC 2008-12-04)
Аудио
Идентификатор : 1
Формат : MPEG Audio
Версия формата : Version 1
Профиль формата : Layer 3
Идентификатор кодека : 55
Идентификатор кодека/Подсказка : MP3
Продолжительность : 1 ч. 54 м.
Вид битрейта : Постоянный
Битрейт : 128 Кбит/сек
Канал(ы) : 2 канала(ов)
Частота : 48,0 КГц
Метод сжатия : С потерями
Размер потока : 105 Мбайт (14%)
Выравнивание : Соединение по промежуткам
Продолжительность промежутка : 42 мс. (1,00 видеокадр)
Время предзагрузки промежутка : 504 ms
Библиотека кодирования : LAME3.98r
Настройки программы : -m s -V 4 -q 2 -lowpass 17 -b 128



Скачать Долгая.Страстная.пятница.The.Long.Good.Friday.(Джон.Маккензи).[1980.триллер.драма.криминал.детектив.HDRip].[AVO].(Карцев).torrent без регистрации
Золото ЗОЛОТАЯ РАЗДАЧА! СКАЧАННОЕ НЕ ЗАСЧИТЫВАЕТСЯ! Золото
Дата: Зарегистрирован   [ Тип: внутренний ] Как тут cкачать?
MAGNET ссылка
MAGNET ссылка


Скачать .torrent

15 KB

Статус: проверено DHT
Скачан: торрент - 137 раз, раздача полностью - 1 раз
Размер: 744 MB
Оценка:  - (Голосов: 0)
Поблагодарили: 2
Поделиться ссылкой на эту раздачу с друзьями:
В контактеFacebookОдноклассникиTwitterLivejournalМой МирLiveinternet
 

 
Показать сообщения:    


Вы не можете начинать темы
Вы не можете отвечать на сообщения
Вы не можете редактировать свои сообщения
Вы не можете удалять свои сообщения
Вы не можете голосовать в опросах
Вы не можете прикреплять файлы к сообщениям
Вы можете скачивать файлы