Loading...
Error

Скачать Пробуждение / Awake / (Сезон 1 полный ) (Дэвид Слэйд, Майкл Ваксман) [2012, Драма, WEB-DL] [720р] [Creative Sound] торрент без регистрации

 
Статистика раздачи
Размер:  18 GB   |    Скачан:  119 раз
Сидов:  1  [  0 KB/s  ]  
 
Автор Сообщение

leon030982

[] 


Пробуждение / Awake
Полный 1-ый сезон


Предварительное описание:
Год выпуска: 2012
Страна: США
Жанр: Драма
Продолжительность: ~00:45:00
Перевод: Любительский многоголосый закадровый / Creative Sound
Русские субтитры: нет
Субтитры: отсутствуют
Режиссёр: Джеффри Рейнер, Сара Пиа Андерсон
В ролях:
Джейсон Айзекс, Лаура Аллен, Дилан Миннетт, Даниела Бобадилла, Крис МакГарри, Бэйли Чейз, Терренс Эдвардс, Алисса Милано, Уилмер Вальдеррама, Б.Д. Вонг и др.
Описание:
Детектив Майкл Бриттен приходит в сознание после автокатастрофы с участием его жены Ханны и сына Рекса. Ему сообщают, что супруга погибла, но сыну удалось выжить. Проснувшись на следующее утро, Майкл понимает, что факты повернулись вспять. И чтобы сохранить обоих его близких в живых, ему приходится жить в двух разных реальностях с разными коллегами по работе и разными проблемами в жизни.
Технические данные:
Качество: WEB-DL
Формат: MKV
Видео кодек: H264
Аудио кодек: AC-3
Видео: H264, 1280x720, 23.976 fps, 4 086 Kbps, 0.185 bit/pixel
Аудио: AC-3, 192 Kbps, 2 channels, 48.0 KHz
Подготовка релиза:
Озвучивание: AllenWalker, Alex Energy, Nadia ART, Slavianin, Scully
Перевод: notabenoid
EmiLyra, baksssss, Seele, GRIBO4EG, krakozyabro4ka, defying, Bentley, a8a8, serjjoga, Nightsong, DevilInside (модератор), _HighFlyer, ryzhenka, nataliya, Mishutka, masha_makarova (модератор), izolenta (модератор), gentleman, Podruga (главный), Alex_ander, annasss, saske_kun, OksRoks
Работа со звуком: AllenWalker
Работа с видео: AllenWalker
| Сэмпл | КиноПоиск | IMDb | |

Format : Matroska
File size : 1.39 GiB
Duration : 43mn 29s
Overall bit rate : 4 572 Kbps
Encoded date : UTC 2012-03-11 20:04:58
Writing application : mkvmerge v4.4.0 ('Die Wiederkehr') сборка от Dec 25 2010 23:32:50
Writing library : libebml v1.0.0 + libmatroska v1.0.0
Video
ID : 1
Format : AVC
Format/Info : Advanced Video Codec
Format profile : Main@L3.1
Format settings, CABAC : Yes
Format settings, ReFrames : 2 frames
Muxing mode : Container profile=Unknown@3.1
Codec ID : V_MPEG4/ISO/AVC
Duration : 43mn 27s
Bit rate : 4 065 Kbps
Nominal bit rate : 4 200 Kbps
Width : 1 280 pixels
Height : 720 pixels
Display aspect ratio : 16:9
Frame rate mode : Variable
Frame rate : 23.976 fps
Resolution : 8 bits
Colorimetry : 4:2:0
Scan type : Progressive
Bits/(Pixel*Frame) : 0.184
Stream size : 1.23 GiB (89%)
Writing library : x264 core 112 r1834 a51816a
Encoding settings : cabac=1 / ref=1 / deblock=1:0:0 / analyse=0x1:0 / me=dia / subme=2 / psy=1 / psy_rd=0.00:0.00 / mixed_ref=0 / me_range=16 / chroma_me=1 / trellis=0 / 8x8dct=0 / cqm=0 / deadzone=21,11 / fast_pskip=1 / chroma_qp_offset=0 / threads=4 / sliced_threads=0 / nr=0 / decimate=1 / interlaced=0 / constrained_intra=0 / bframes=3 / b_pyramid=0 / b_adapt=1 / b_bias=0 / direct=3 / weightb=0 / open_gop=0 / weightp=2 / keyint=250 / keyint_min=25 / scenecut=40 / intra_refresh=0 / rc_lookahead=40 / rc=abr / mbtree=1 / bitrate=4200 / ratetol=1.0 / qcomp=0.60 / qpmin=10 / qpmax=51 / qpstep=4 / ip_ratio=1.41 / aq=1:1.00
Audio #1
ID : 2
Format : AC-3
Format/Info : Audio Coding 3
Codec ID : A_AC3
Duration : 43mn 29s
Bit rate mode : Constant
Bit rate : 192 Kbps
Channel(s) : 2 channels
Channel positions : L R
Sampling rate : 48.0 KHz
Stream size : 59.7 MiB (4%)
Language : Russian
Audio #2
ID : 3
Format : AC-3
Format/Info : Audio Coding 3
Codec ID : A_AC3
Duration : 43mn 29s
Bit rate mode : Constant
Bit rate : 224 Kbps
Channel(s) : 2 channels
Channel positions : L R
Sampling rate : 48.0 KHz
Stream size : 69.7 MiB (5%)
Внимание! Раздача ведётся путём добавления новых серий; при каждом добавлении создаётся новый торрент. Чтобы начать докачку новой серии, пользователям необходимо сделать следующее:
(1) остановить скачивание,
(2) удалить старый торрент у себя из клиента (старые серии удалять не надо),
(3) скачать новый торрент и запустить его у себя в клиенте вместо старого, при этом указать клиенту путь в старую папку куда и должно происходить скачивание новых серий.
Ваш клиент при этом должен произвести хеширование (проверку) старой папки (если не производит сам - помогите ему сделать это), и будет докачивать только те серии которых у вас ещё нет. Старые серии при этом не удаляются, а продолжают раздаваться!
Eсли вы уже удалили старые серии, то предотвратить повторную закачку старых серий можно, отжав галочку в соответствующих местах при запуске нового торрента. По возможности, желательно не удалять старые серии как можно дольше чтобы релизёр не столько продолжал раздавать старые серии, а смог сконцентрироваться на новых.



Скачать Пробуждение.Awake.(Сезон.1.полный.).(Дэвид.Слэйд.Майкл.Ваксман).[2012.Драма.WEB-DL].[720р].[Creative.Sound].torrent без регистрации
Золото ЗОЛОТАЯ РАЗДАЧА! СКАЧАННОЕ НЕ ЗАСЧИТЫВАЕТСЯ! Золото
Дата: Зарегистрирован   [ Тип: внутренний ] Как тут cкачать?
MAGNET ссылка
MAGNET ссылка


Скачать .torrent

47 KB

Статус: проверено DHT
Скачан: торрент - 119 раз, раздача полностью - 1 раз
Размер: 18 GB
Оценка:  - (Голосов: 0)
Поблагодарили: 2
Поделиться ссылкой на эту раздачу с друзьями:
В контактеFacebookОдноклассникиTwitterLivejournalМой МирLiveinternet
 

 
Показать сообщения:    


Вы не можете начинать темы
Вы не можете отвечать на сообщения
Вы не можете редактировать свои сообщения
Вы не можете удалять свои сообщения
Вы не можете голосовать в опросах
Вы не можете прикреплять файлы к сообщениям
Вы можете скачивать файлы