Loading...
Error

Скачать Потерянная / Фэйри / Lost Girl (Сезон: 1, Серии: 1-13) (Erik Canuel / Robert Lieberman / Paul Fox / Steve Dimarco) [2010, фэнтези, мистика, боевик, HDTV] [720p] торрент без регистрации

 
Статистика раздачи
Размер:  14,71 GB   |    Скачан:  3617 раз
Сидов:  1  [  0 KB/s  ]   Личеров:  1  [  0 KB/s  ]  
 
Автор Сообщение

МихаНЕзатор

[] 

Потерянная / Фэйри / Lost Girl

Год выпуска: 2010
Страна: Канада
Жанр: фэнтези, мистика, боевик
Продолжительность: 43 минуты
Перевод: любительский одноголосый закадровый Shemer
Субтитры можно скачать:
Режиссёры: Erik Canuel / Robert Lieberman / Paul Fox / Steve Dimarco

В ролях: Anna Silk, Kris Holden-Ried, Ksenia Solo, Richard Howland, K.C. Collins, Zoie Palmer, Michael Mando

Описание: Бо - суккуб. Выросшая в человеческой семье она не знала о своей истинной природе, считая себя фриком, а неумение контролировать сверхъестественный голод сделало ее одинокой беглянкой, оставляющей после себя череду трупов. Все меняется, когда Бо попадает в поле зрения кланов Фэйри, объяснивших ей кто она. Не желая выбирать между кланами Света и Тьмы, Бо решает занять сторону людей. Ей помогают юная русская воровка Кензи, детектив-оборотень Дайсон и доктор Лорен, занимающаяся изучением Фэйри.

Description: Lost Girl focuses on the gorgeous and charismatic Bo, a supernatural being called a succubus who feeds on the energy of humans, sometimes with fatal results. Refusing to embrace her supernatural clan and its rigid hierarchy, Bo is a renegade who takes up the fight for the underdog while searching for the truth about her own mysterious origins.

Качество: HDTV 720p
Формат: MKV
Видео кодек: H.264
Аудио кодек: AC3, MP3
Видео: 1280×720 pixels 16:9 V_MPEG4/ISO/AVC, 23.976 fps, 3 211 Kbps, 0.145 bit/pixel
Аудио 1: AC-3, 48.0 KHz, 6 channels, 384 Kbps eng
Аудио 2: MP3, 48.0 KHz, 2 channels, 128 Kbps rus

Добавлена последняя серия сезона. Перекачайте торрент и прочитайте инструкцию, что нужно сделать.
General
UniqueID : 214341349148880574893664924426264646718 (0xA140A46B743D69378FE363B10890143E)
Complete name : D:\Program Files\uTorrent\Download\Lost Girl season 1 720p HDTV (eng,rus)\Lost Girl S01E01 It's a Fae, Fae, Fae, Fae World 720p HDTV.mkv
Format : Matroska
File size : 1.13 GiB
Duration : 43mn 15s
Overall bit rate : 3 744 Kbps
Encoded date : UTC 2010-12-06 16:21:30
Writing application : mkvmerge v4.4.0 ('Die Wiederkehr') built on Oct 31 2010 21:52:48
Writing library : libebml v1.0.0 + libmatroska v1.0.0

Video
ID : 1
Format : AVC
Format/Info : Advanced Video Codec
Format profile : High@L3.1
Format settings, CABAC : Yes
Format settings, ReFrames : 4 frames
Codec ID : V_MPEG4/ISO/AVC
Duration : 43mn 15s
Bit rate : 3 236 Kbps
Width : 1 280 pixels
Height : 720 pixels
Display aspect ratio : 16:9
Frame rate : 23.976 fps
Color space : YUV
Chroma subsampling : 4:2:0
Bit depth : 8 bits
Scan type : Progressive
Bits/(Pixel*Frame) : 0.146
Stream size : 977 MiB (84%)
Writing library : x264 core 104 r1713 c276662
Encoding settings : cabac=1 / ref=5 / deblock=1:0:0 / analyse=0x3:0x113 / me=hex / subme=7 / psy=1 / psy_rd=1.00:0.00 / mixed_ref=1 / me_range=16 / chroma_me=1 / trellis=1 / 8x8dct=1 / cqm=0 / deadzone=21,11 / fast_pskip=1 / chroma_qp_offset=-2 / threads=3 / sliced_threads=0 / nr=0 / decimate=1 / interlaced=0 / constrained_intra=0 / bframes=3 / b_pyramid=1 / b_adapt=1 / b_bias=0 / direct=1 / weightb=1 / open_gop=0 / weightp=2 / keyint=240 / keyint_min=24 / scenecut=40 / intra_refresh=0 / rc=2pass / mbtree=0 / bitrate=3236 / ratetol=1.0 / qcomp=0.60 / qpmin=10 / qpmax=51 / qpstep=4 / cplxblur=20.0 / qblur=0.5 / ip_ratio=1.40 / pb_ratio=1.30 / aq=1:1.00
Language : English

Audio #1
ID : 2
Format : AC-3
Format/Info : Audio Coding 3
Mode extension : CM (complete main)
Codec ID : A_AC3
Duration : 43mn 15s
Bit rate mode : Constant
Bit rate : 384 Kbps
Channel(s) : 6 channels
Channel positions : Front: L C R, Side: L R, LFE
Sampling rate : 48.0 KHz
Bit depth : 16 bits
Compression mode : Lossy
Stream size : 119 MiB (10%)
Language : English

Audio #2
ID : 3
Format : MPEG Audio
Format version : Version 1
Format profile : Layer 3
Mode : Joint stereo
Mode extension : MS Stereo
Codec ID : A_MPEG/L3
Codec ID/Hint : MP3
Duration : 43mn 15s
Bit rate mode : Constant
Bit rate : 128 Kbps
Channel(s) : 2 channels
Sampling rate : 48.0 KHz
Compression mode : Lossy
Stream size : 39.6 MiB (3%)
Language : Russian
Раздача ведётся путём добавления новых серий; при каждом добавлении создаётся новый торрент. Чтобы начать докачку новой серии, пользователям необходимо сделать следующее:
(1) остановить скачивание,
(2) удалить старый торрент у себя из клиента (старые серии удалять не надо),
(3) скачать новый торрент и запустить его у себя в клиенте вместо старого, при этом указать клиенту путь в старую папку куда и должно происходить скачивание новых серий.

Ваш клиент при этом должен произвести хеширование (проверку) старой папки (если не производит сам - помогите ему сделать это), и будет докачивать только те серии которых у вас ещё нет. Старые серии при этом не удаляются, а продолжают раздаваться!

Eсли вы уже удалили старые серии, то предотвратить повторную закачку старых серий можно, отжав галочку в соответствующих местах при запуске нового торрента. По возможности, желательно не удалять старые серии как можно дольше чтобы релизёр не столько продолжал раздавать старые серии, а смог сконцентрироваться на новых.



Скачать Потерянная.Фэйри.Lost.Girl.(Сезон.1.Серии.1-13).(Erik.Canuel.Robert.Lieberman.Paul.Fox.Steve.Dimarco).[2010.фэнтези.мистика.боевик.HDTV].[720p].torrent без регистрации
Золото ЗОЛОТАЯ РАЗДАЧА! СКАЧАННОЕ НЕ ЗАСЧИТЫВАЕТСЯ! Золото
Дата: Зарегистрирован   [ Тип: внутренний ] Как тут cкачать?
MAGNET ссылка
MAGNET ссылка


Скачать .torrent

76 KB

Статус: проверено DHT
Скачан: торрент - 3617 раз, раздача полностью - 26 раз
Размер: 14,71 GB
Оценка:  5 (Голосов: 2)
Поблагодарили: 2
Поделиться ссылкой на эту раздачу с друзьями:
В контактеFacebookОдноклассникиTwitterLivejournalМой МирLiveinternet
 

 
Показать сообщения:    


Вы не можете начинать темы
Вы не можете отвечать на сообщения
Вы не можете редактировать свои сообщения
Вы не можете удалять свои сообщения
Вы не можете голосовать в опросах
Вы не можете прикреплять файлы к сообщениям
Вы можете скачивать файлы