Loading...
Error

Скачать Убийство / The Killing (Сезон 2 полный) (Эдвард Бьянчи, Агнешка Холланд) [2012 г., драма, WEB-DLRip] [DVO] (Кубик в Кубе) торрент без регистрации

Статистика раздачи
Размер:  6,11 GB   |    Скачан:  178 раз
Сидов:  1  [  0 KB/s  ]  
 
 
 
Автор Сообщение

leon030982

[] 


Убийство / The Killing
Год выпуска: 2012
Страна: США

Жанр: драма
Продолжительность: 45 мин
Перевод: Профессиональный двухголосый закадровый(Кубик в Кубе)
Субтитры: рус, англ
Режиссер: Эдвард Бьянчи, Агнешка Холланд
В ролях:
Мирей Инос, Билли Кэмпбелл, Мишель Форбс, Джоел Киннаман, Брент Секстон
Описание:
Сериал расскажет об одном убийстве с трех точек зрения – детективов, приставленных к этому делу, семьи погибшей и подозреваемых. Сюжет также затронет местных политиков и их связь с этим делом. Каждая серия – один день расследования.

Качество: WEB-DLRip
Формат: AVI

Видео кодек: XviD
Аудио кодек: MP3
Видео: 624x352 (1.77:1), 23.976 fps, XviD build 65 ~1113 kbps avg, 0.21 bit/pixel
Audio Rus: 48 kHz, MPEG Layer 3, 2 ch, ~224.00 kbps avg
Audio Eng: 48 kHz, MPEG Layer 3, 2 ch, ~224.00 kbps avg
Озвучка: Кубик в Кубе
Перевод: Эль Брухо

Рип: ЛП


General
Complete name : F:\ФТП 2\Work\Kybik v Kybe\The Killing Season 2 Kybik v Kybe\The.Killing.s02e01.rus.eng.Kybik.v.Kybe.avi
Format : AVI
Format/Info : Audio Video Interleave
File size : 489 MiB
Duration : 43mn 23s
Overall bit rate : 1 576 Kbps
Writing application : VirtualDubMod 1.5.10.2 (build 2540/release)
Writing library : VirtualDubMod build 2540/release
Video

ID : 0
Format : MPEG-4 Visual
Format profile : Advanced Simple@L5
Format settings, BVOP : 1
Format settings, QPel : No
Format settings, GMC : No warppoints
Format settings, Matrix : Default (H.263)
Codec ID : XVID
Codec ID/Hint : XviD
Duration : 43mn 23s
Bit rate : 1 114 Kbps
Width : 624 pixels
Height : 352 pixels
Display aspect ratio : 16:9
Frame rate : 23.976 fps
Color space : YUV
Chroma subsampling : 4:2:0
Bit depth : 8 bits
Scan type : Progressive
Compression mode : Lossy
Bits/(Pixel*Frame) : 0.212
Stream size : 346 MiB (71%)
Writing library : XviD 65
Audio #1
ID : 1
Format : MPEG Audio
Format version : Version 1
Format profile : Layer 3
Codec ID : 55
Codec ID/Hint : MP3
Duration : 43mn 23s
Bit rate mode : Constant
Bit rate : 224 Kbps
Channel(s) : 2 channels
Sampling rate : 48.0 KHz
Compression mode : Lossy
Stream size : 69.5 MiB (14%)
Alignment : Aligned on interleaves
Interleave, duration : 42 ms (1.00 video frame)
Interleave, preload duration : 504 ms
Audio #2
ID : 2
Format : MPEG Audio
Format version : Version 1
Format profile : Layer 3
Mode : Joint stereo
Mode extension : MS Stereo
Codec ID : 55
Codec ID/Hint : MP3
Duration : 43mn 23s
Bit rate mode : Constant
Bit rate : 224 Kbps
Channel(s) : 2 channels
Sampling rate : 48.0 KHz
Compression mode : Lossy
Stream size : 69.5 MiB (14%)
Alignment : Aligned on interleaves
Interleave, duration : 42 ms (1.00 video frame)
Interleave, preload duration : 504 ms
Writing library : LAME3.99r
Encoding settings : -m j -V 4 -q 2 -lowpass 19.4 -b 224
Reflections
My Lucky Day
Numb
СЕЗОН ЗАВЕРШЕН




Скачать Убийство.The.Killing.(Сезон.2.полный).(Эдвард.Бьянчи.Агнешка.Холланд).[2012.г.драма.WEB-DLRip].[DVO].(Кубик.в.Кубе).torrent без регистрации
Золото ЗОЛОТАЯ РАЗДАЧА! СКАЧАННОЕ НЕ ЗАСЧИТЫВАЕТСЯ! Золото
Дата: Зарегистрирован   [ Тип: внутренний ] Как тут cкачать?
MAGNET ссылка
MAGNET ссылка


Скачать .torrent

19 KB

Статус: проверено DHT
Скачан: торрент - 178 раз, раздача полностью - 20 раз
Размер: 6,11 GB
Оценка:  - (Голосов: 0)
Поблагодарили: 4
Поделиться ссылкой на эту раздачу с друзьями:
В контактеFacebookОдноклассникиTwitterLivejournalМой МирLiveinternet
 

 
Показать сообщения:    


Вы не можете начинать темы
Вы не можете отвечать на сообщения
Вы не можете редактировать свои сообщения
Вы не можете удалять свои сообщения
Вы не можете голосовать в опросах
Вы не можете прикреплять файлы к сообщениям
Вы можете скачивать файлы