Loading...
Error

Скачать Цорн / Zorn (Гуннар Хелльстрём) [1994, Драма, биография, DVDRip] [DVO] торрент без регистрации

 
Статистика раздачи
Размер:  1,46 GB   |    Скачан:  137 раз
Сидов:  1  [  0 KB/s  ]  
 
Автор Сообщение

leon030982

[] 

Цорн / Zorn
Страна: Швеция, Финляндия, Норвегия
Жанр: Драма, биография
Год выпуска: 1994
Продолжительность: 02:00:22
Перевод: Профессиональный (двухголосый закадровый)
Cубтитры: нет
Режиссер: Гуннар Хелльстрём / Gunnar Hellström

В ролях: Гуннар Хелльстрём, Линда Козловски, Лив Ульман, Ярл Кулле, Руперт Фрейзер, Рикард Волфф, Сесилия Льюнг, Кристина Тернквист, Аксель Дюберг

Описание: Период из жизни Андерса Леонарда Цорна — шведского живописца, графика и скульптора, уже достигшего признания и известности в Европе, России и США. Наибольшие достижения осуществил в жанре ню. Фильм о сильном и талантливом человеке, который различал прекрасное и разрешал себе жить полной жизнью.

Сэмпл: http://multi-up.com/686291
Качество видео: DVDRip
Формат видео: AVI
Видео: 688x448 (1.54:1), 25 fps, XviD build 50, 1539 kbps avg, 0.20 bit/pixel
Аудио: Russian: 48 kHz, AC3 Dolby Digital, 2/0 (L,R) ch, 192.00 kbps avg[align=center][color=darkblue]
General
Complete name : E:\Мои раздачи\Zorn_RG_All_Films.avi
Format : AVI
Format/Info : Audio Video Interleave
File size : 1.46 GiB
Duration : 2h 0mn
Overall bit rate : 1 741 Kbps
Writing application : VirtualDubMod 1.5.10.3 | www.virtualdub-fr.org || (build 2550/release)
Writing library : VirtualDubMod build 2550/release
Video
ID : 0
Format : MPEG-4 Visual
Format profile : Advanced Simple@L5
Format settings, BVOP : Yes
Format settings, QPel : No
Format settings, GMC : No warppoints
Format settings, Matrix : Custom
Codec ID : XVID
Codec ID/Hint : XviD
Duration : 2h 0mn
Bit rate : 1 540 Kbps
Width : 688 pixels
Height : 448 pixels
Display aspect ratio : 3:2
Frame rate : 25.000 fps
Color space : YUV
Chroma subsampling : 4:2:0
Bit depth : 8 bits
Scan type : Progressive
Compression mode : Lossy
Bits/(Pixel*Frame) : 0.200
Stream size : 1.29 GiB (88%)
Writing library : XviD 1.2.1 (UTC 2008-12-04)
Audio
ID : 1
Format : AC-3
Format/Info : Audio Coding 3
Mode extension : CM (complete main)
Codec ID : 2000
Duration : 2h 0mn
Bit rate mode : Constant
Bit rate : 192 Kbps
Channel(s) : 2 channels
Channel positions : Front: L R
Sampling rate : 48.0 KHz
Bit depth : 16 bits
Compression mode : Lossy
Stream size : 165 MiB (11%)
Alignment : Split accross interleaves
Interleave, duration : 40 ms (1.00 video frame)
Interleave, preload duration : 500 ms



Скачать Цорн.Zorn.(Гуннар.Хелльстрём).[1994.Драма.биография.DVDRip].[DVO].torrent без регистрации
Золото ЗОЛОТАЯ РАЗДАЧА! СКАЧАННОЕ НЕ ЗАСЧИТЫВАЕТСЯ! Золото
Дата: Зарегистрирован   [ Тип: внутренний ] Как тут cкачать?
MAGNET ссылка
MAGNET ссылка


Скачать .torrent

15 KB

Статус: проверено DHT
Скачан: торрент - 137 раз, раздача полностью - 19 раз
Размер: 1,46 GB
Оценка:  - (Голосов: 0)
Поблагодарили: 1
Поделиться ссылкой на эту раздачу с друзьями:
В контактеFacebookОдноклассникиTwitterLivejournalМой МирLiveinternet
 

 
Показать сообщения:    


Вы не можете начинать темы
Вы не можете отвечать на сообщения
Вы не можете редактировать свои сообщения
Вы не можете удалять свои сообщения
Вы не можете голосовать в опросах
Вы не можете прикреплять файлы к сообщениям
Вы можете скачивать файлы