Loading...
Error

Скачать Подлодка / Ханли / The Hunley (Джон Грэй) [1999, Военный, исторический, драма, DVDRip] [MVO] торрент без регистрации

 
Статистика раздачи
Размер:  1,32 GB   |    Скачан:  141 раз
Сидов:  1  [  0 KB/s  ]  
 
Автор Сообщение

leon030982

[] 

Подлодка / Ханли / The Hunley
Страна: США
Жанр: Военный, исторический, драма
Год выпуска: 1999
Продолжительность: 01:34:24
Перевод: Профессиональный (многоголосый закадровый)
Cубтитры: нет
Оригинальная аудиодорожка: английский
Режиссер: Джон Грэй / John Gray

В ролях: Арманд Ассанте, Дональд Сазерленд, Алекс Дженнингс, Крис Бауэр, Джерри Беккер, Майкл Долан, Себастьян Рош, Майкл Стулбарг, Джефф Мэндон, Джек Баун, Кевин Робертсон, Каприс Бенедетти, Джон Хаффман, Джеймс Мейберри, Нэнси Робинетт, Рода Гриффис, Лори Бисли, Кевин Мюррэй, Уильям Л. Томас, Дэвид Двайер, Пол Морелла, Марти Лодж, Кэл Джонсон, Майк Лутц, Джим Линч, Марк Миллер, Фрэнк Шотер, Брюс Уильямсон

Описание: Невероятная, но все же реальная история действий команды подводной лодки "ССС Ханли" во время осады Чарльстона в 1864 году. Это история героизма девяти людей, которые вошли в историю тем, что их субмарина стала первой в истории, которой удалось потопить вражеское судно во время войны... Гражданская война между Севером и Югом стала важнейшей вехой в истории морских баталий! Помимо знаменитого сражения между первыми броненосцами "Мерримак" и "Монитор", ознаменовавшего начало новой эпохи войны на море, на воду была спущена первая в истории человечества боевая подводная лодка "Ханли"! Южане сконструировали эту уникальную субмарину, как единственное оружие, которое было способно прорвать морскую блокаду северян. Вам предстоит увидеть захватывающую историю этой подлодки и ее экипажа, где Арманд Ассанте исполнил роль шкипера "Ханли" лейтенанта Диксона", а Дональд Сазерленд - роль генерала Борегара, командира конфедератов в Чарльстоне. Этому подводному кораблю предстояло навсегда войти в историю, а его доблестному экипажу из девяти добровольцев - стать героями!

Сэмпл: http://multi-up.com/682955
Качество видео: DVDRip
Формат видео: AVI
Видео: DivX Codec 5.x or 6.x, 704x528 (1.33:1), 25 fps, 1600 kbps avg
Аудио: Rus AC3 Dolby Digital, 48 kHz, 2/0 (L,R) ch, 192.00 kbps avg MVO
Аудио 2: ENG AC3 Dolby Digital, 48 kHz, 2/0 (L,R) ch, 192.00 kbps avg
General
Complete name : D:\НА РУТРЕКЕР\Podlodka.1999.DivX.DVDRip.Lem.avi
Format : AVI
Format/Info : Audio Video Interleave
File size : 1.32 GiB
Duration : 1h 34mn
Overall bit rate : 1 999 Kbps
Writing application : VirtualDubModRus 1.5.10.2 (build 2542/release)
Writing library : VirtualDubMod build 2542/release
Video
ID : 0
Format : MPEG-4 Visual
Format settings, BVOP : Yes
Format settings, QPel : No
Format settings, GMC : No warppoints
Format settings, Matrix : Default (H.263)
Muxing mode : Packed bitstream
Codec ID : DX50
Codec ID/Hint : DivX 5
Duration : 1h 34mn
Bit rate : 1 600 Kbps
Width : 704 pixels
Height : 528 pixels
Display aspect ratio : 4/3
Frame rate : 25.000 fps
Resolution : 24 bits
Colorimetry : 4:2:0
Scan type : Progressive
Bits/(Pixel*Frame) : 0.172
Stream size : 1.06 GiB (80%)
Writing library : DivX 2991
Audio #1
ID : 1
Format : AC-3
Format/Info : Audio Coding 3
Codec ID : 2000
Duration : 1h 34mn
Bit rate mode : Constant
Bit rate : 192 Kbps
Channel(s) : 2 channels
Channel positions : L R
Sampling rate : 48.0 KHz
Stream size : 130 MiB (10%)
Alignment : Split accross interleaves
Interleave, duration : 40 ms (1.00 video frame)
Interleave, preload duration : 500 ms
Audio #2
ID : 2
Format : AC-3
Format/Info : Audio Coding 3
Codec ID : 2000
Duration : 1h 34mn
Bit rate mode : Constant
Bit rate : 192 Kbps
Channel(s) : 2 channels
Channel positions : L R
Sampling rate : 48.0 KHz
Stream size : 130 MiB (10%)
Alignment : Split accross interleaves
Interleave, duration : 40 ms (1.00 video frame)
Interleave, preload duration : 500 ms



Скачать Подлодка.Ханли.The.Hunley.(Джон.Грэй).[1999.Военный.исторический.драма.DVDRip].[MVO].torrent без регистрации
Золото ЗОЛОТАЯ РАЗДАЧА! СКАЧАННОЕ НЕ ЗАСЧИТЫВАЕТСЯ! Золото
Дата: Зарегистрирован   [ Тип: внутренний ] Как тут cкачать?
MAGNET ссылка
MAGNET ссылка


Скачать .torrent

14 KB

Статус: проверено DHT
Скачан: торрент - 141 раз, раздача полностью - 318 раз
Размер: 1,32 GB
Оценка:  - (Голосов: 0)
Поблагодарили: 1
Поделиться ссылкой на эту раздачу с друзьями:
В контактеFacebookОдноклассникиTwitterLivejournalМой МирLiveinternet
 

 
Показать сообщения:    


Вы не можете начинать темы
Вы не можете отвечать на сообщения
Вы не можете редактировать свои сообщения
Вы не можете удалять свои сообщения
Вы не можете голосовать в опросах
Вы не можете прикреплять файлы к сообщениям
Вы можете скачивать файлы