Loading...
Error

Скачать Яйцеголовые / Coneheads (Steve Barron) [1993 г., фантастика, комедия, HDTVRip] [MVO] торрент без регистрации

 
Статистика раздачи
Размер:  742 MB   |    Скачан:  126 раз

Полного источника не было: 24 минуты

 
Автор Сообщение

leon030982

[] 


Яйцеголовые / Coneheads
«Великая Америка принимает всех!»


Год выпуска: 1993
Страна: США
Жанр: фантастика, комедия
Продолжительность: 01:26:41
Перевод: Профессиональный (многоголосый закадровый)

Субтитры: нет

Режиссер: Steve Barron / Стив Баррон
В ролях:

Роберт Нотт (Air Traffic Controller), Джонатан Пеннер (Captain Air Traffic)
, Уип Хабли (F-16 Pilot)
, Дэн Эйкройд (Beldar Conehead / Donald R. DeCicco), Джейн Куртин (Prymatt Conehead / Mary Margaret DeCicco), Ховард Нэппер (Ang Pilot), Майкл Ричардс (Motel Clerk), Эдди Гриффин (Customer), Синбад (Otto), Фил Хартмен (Marlax), Адам Сэндлер (Carmine), Грант Мартелл (Hispanic Man #1)

Описание:

Вполне может быть, что человек не одинок во Вселенной, и встреча с собратом по разуму, отличающимся от землян только формой черепа, не исключена. Во время посадки на Землю корабль яйцеголовых инопланетян сбивает истребитель ВВС США. Яйцеголовые вынуждены жить среди людей. Постепенно семейство чужаков осваивается среди землян и даже принимает американский образ жизни.


Доп. информация:



Рип совместим с бытовыми DVD-проигрывателями.



Качество видео: HDTVRip (Исходник: HDTV/1080i)
Формат видео: AVI
Видео кодек: XviD
Аудио кодек: MP3
Видео: XviD; 656x368 (16:9); 1058 Kbps; 23,976 fps; 0,183 bpp
Аудио: MPEG-1 Audio Layer 3; 48.0 KHz; 128 Kbps; CBR; 2 ch
General
Complete name : \Yaizegolovie_(1993).HDTVRip.XviD.mp3.MVO-All.Films-RG.avi
Format : AVI
Format/Info : Audio Video Interleave
File size : 742 MiB
Duration : 1h 26mn
Overall bit rate : 1 196 Kbps
Movie name : Яйцеголовые / Coneheads (1993) HDTVRip [All.Films][RG]
Director : <VIRUS> [rutracker.org]
Writing application : VirtualDubMod 1.5.10.3 | www.virtualdub-fr.org || (build 2550/release)
Writing library : VirtualDubMod build 2550/release
Video
ID : 0
Format : MPEG-4 Visual
Format profile : Advanced Simple@L5
Format settings, BVOP : 2
Format settings, QPel : No
Format settings, GMC : No warppoints
Format settings, Matrix : Custom
Codec ID : XVID
Codec ID/Hint : XviD
Duration : 1h 26mn
Bit rate : 1 059 Kbps
Width : 656 pixels
Height : 368 pixels
Display aspect ratio : 16:9
Frame rate : 23.976 fps
Color space : YUV
Chroma subsampling : 4:2:0
Bit depth : 8 bits
Scan type : Progressive
Compression mode : Lossy
Bits/(Pixel*Frame) : 0.183
Stream size : 656 MiB (89%)
Writing library : XviD 65
Audio
ID : 1
Format : MPEG Audio
Format version : Version 1
Format profile : Layer 3
Codec ID : 55
Codec ID/Hint : MP3
Duration : 1h 26mn
Bit rate mode : Constant
Bit rate : 128 Kbps
Channel(s) : 2 channels
Sampling rate : 48.0 KHz
Compression mode : Lossy
Stream size : 79.4 MiB (11%)
Alignment : Aligned on interleaves
Interleave, duration : 42 ms (1.00 video frame)
Interleave, preload duration : 504 ms
Title : MVO
Writing library : LAME3.99
Encoding settings : -m s -V 4 -q 0 -lowpass 17 -b 128



Скачать Яйцеголовые.Coneheads.(Steve.Barron).[1993.г.фантастика.комедия.HDTVRip].[MVO].torrent без регистрации
Золото ЗОЛОТАЯ РАЗДАЧА! СКАЧАННОЕ НЕ ЗАСЧИТЫВАЕТСЯ! Золото
Дата: Зарегистрирован   [ Тип: внутренний ] Как тут cкачать?
MAGNET ссылка
MAGNET ссылка


Скачать .torrent

15 KB

Статус: проверено DHT
Скачан: торрент - 126 раз, раздача полностью - 9 раз
Размер: 742 MB
Оценка:  - (Голосов: 0)
Поблагодарили: 1
Поделиться ссылкой на эту раздачу с друзьями:
В контактеFacebookОдноклассникиTwitterLivejournalМой МирLiveinternet
 

 
Показать сообщения:    


Вы не можете начинать темы
Вы не можете отвечать на сообщения
Вы не можете редактировать свои сообщения
Вы не можете удалять свои сообщения
Вы не можете голосовать в опросах
Вы не можете прикреплять файлы к сообщениям
Вы можете скачивать файлы