Loading...
Error

Скачать Кладбище домашних животных 2 / Pet Sematary II (Мэри Ламберт) [1992, ужасы, боевик, триллер, DVDRip] [MVO] торрент без регистрации

 
Статистика раздачи
Размер:  745 MB   |    Скачан:  147 раз
Сидов:  1  [  0 KB/s  ]  
 
Автор Сообщение

leon030982

[] 

Кладбище домашних животных 2 / Pet Sematary II
Страна: США
Жанр: ужасы, боевик, триллер
Год выпуска: 1992
Продолжительность: 01:40:26
Перевод: Профессиональный (многоголосый закадровый)
Cубтитры: нет
Режиссер: Мэри Ламберт / Mary Lambert
В ролях: Эдвард Ферлонг, Энтони Эдвардс, Клэнси Браун, Джэред Раштон, Дарлэнн Флюгел, Джейсон МакГуайр, Сара Триггер, Лиза Вальц, Джим Пек, Лен Хант
Описание: После смерти жены ветеринар Чейз Мэтьюз и его тринадцатилетний сын Джефф решают начать новую жизнь. Отец и сын переезжают в захолустный городок Ладлоу. Здесь Джефф знакомится с подростком по имени Дрю. Как выяснилось, новому приятелю Джеффа живется несладко. Над Дрю постоянно издевается его отчим — местный шериф Гас Гилберт. Однажды, когда жестокость отчима перешла все границы, он хладнокровно пристрелил любимую собаку Дрю. Теперь мальчикам предстоит похоронить пса. И они решают сделать это на старом индейском кладбище, про которое ходят жуткие легенды. Рассказывают, что если закопать на нем мертвеца, то через некоторое время он обязательно вернется…

Качество видео: DVDRip
Формат видео: AVI
Видео: 656x368 (1.78:1), 23.976 fps, XviD build 65 ~899 kbps avg, 0.16 bit/pixel
Аудио: 48 kHz, MPEG Layer 3, 2 ch, ~128.00 kbps avg
General
Complete name : D:\Релизы\Новая папка\(1992) Кладбище домашних животных 2 (Pet Sematary II) MVO.DVDRip.XviD.avi
Format : AVI
Format/Info : Audio Video Interleave
File size : 745 MiB
Duration : 1h 40mn
Overall bit rate : 1 037 Kbps
Writing application : VirtualDubMod 1.5.10.3 | www.virtualdub-fr.org || (build 2550/release)
Writing library : VirtualDubMod build 2550/release
Video
ID : 0
Format : MPEG-4 Visual
Format profile : Advanced Simple@L5
Format settings, BVOP : 1
Format settings, QPel : No
Format settings, GMC : No warppoints
Format settings, Matrix : Custom
Codec ID : XVID
Codec ID/Hint : XviD
Duration : 1h 40mn
Bit rate : 900 Kbps
Width : 656 pixels
Height : 368 pixels
Display aspect ratio : 16:9
Frame rate : 23.976 fps
Color space : YUV
Chroma subsampling : 4:2:0
Bit depth : 8 bits
Scan type : Progressive
Compression mode : Lossy
Bits/(Pixel*Frame) : 0.155
Stream size : 646 MiB (87%)
Writing library : XviD 65
Audio
ID : 1
Format : MPEG Audio
Format version : Version 1
Format profile : Layer 3
Mode : Joint stereo
Mode extension : MS Stereo
Codec ID : 55
Codec ID/Hint : MP3
Duration : 1h 40mn
Bit rate mode : Constant
Bit rate : 128 Kbps
Channel(s) : 2 channels
Sampling rate : 48.0 KHz
Compression mode : Lossy
Stream size : 91.9 MiB (12%)
Alignment : Aligned on interleaves
Interleave, duration : 42 ms (1.00 video frame)
Interleave, preload duration : 504 ms
Writing library : LAME3.99r
Encoding settings : -m j -V 4 -q 2 -lowpass 17 -b 128



Скачать Кладбище.домашних.животных.2.Pet.Sematary.II.(Мэри.Ламберт).[1992.ужасы.боевик.триллер.DVDRip].[MVO].torrent без регистрации
Золото ЗОЛОТАЯ РАЗДАЧА! СКАЧАННОЕ НЕ ЗАСЧИТЫВАЕТСЯ! Золото
Дата: Зарегистрирован   [ Тип: внутренний ] Как тут cкачать?
MAGNET ссылка
MAGNET ссылка


Скачать .torrent

15 KB

Статус: проверено DHT
Скачан: торрент - 147 раз, раздача полностью - 33 раз
Размер: 745 MB
Оценка:  - (Голосов: 0)
Поблагодарили: 3
Поделиться ссылкой на эту раздачу с друзьями:
В контактеFacebookОдноклассникиTwitterLivejournalМой МирLiveinternet
 

 
Показать сообщения:    


Вы не можете начинать темы
Вы не можете отвечать на сообщения
Вы не можете редактировать свои сообщения
Вы не можете удалять свои сообщения
Вы не можете голосовать в опросах
Вы не можете прикреплять файлы к сообщениям
Вы можете скачивать файлы