Loading...
Error

Скачать Его игра / He got game (Спайк Ли) [1998, Драма, Спорт, BDRip-AVC] [MVO] торрент без регистрации

 
Статистика раздачи
Размер:  2,18 GB   |    Скачан:  125 раз

Полного источника не было: 24 минуты

 
Автор Сообщение

leon030982

[] 

Его игра / He Got Game (1998) BDRip-AVC от PowerTracker

Жанр: драма, спорт
Страна: США
Режиссер: Спайк Ли
В ролях: Дензел Вашингтон, Рэй Аллен, Милла Йовович, Розарио Доусон, Хилл Харпер, Зельда Харрис, Нед Битти, Джим Браун, Джозеф Лайл Тейлор, Билл Нанн


Сюжет фильма: У осужденного за убийство Джейка Шатлсуорта появляется призрачный шанс выйти на свободу раньше, чем через положенные ему 15 лет. Он просто должен убедить своего сына талантливого баскетболиста поступить в определенный университет.

С этой целью два сопровождающих агента привозят Джейка в Нью-Йорк и селят в гадюшник, именуемый гостиницей. С радиомаяком на ноге и проституткой по соседству, Джейк получает несколько дней свободы, чтобы вновь обрести сына, мать которого он убил шесть лет назад


Мировая премьера: 1 мая 1998



Продолжительность: 2:10:58
Качество видео: BDRip-AVC
Видео: кодек: x264, размер кадра: 1024x554, битрейт: 1868 кб/с, bit/pixel: 0.132
Аудио #1: язык: Русский , перевод: профессиональный многоголосый закадровый («Twister»), кодек: AC3 5.1, битрейт: 384.00 кб/с
Аудио #2: язык: Английский , перевод: оригинал, кодек: AC3 2.0, битрейт: 128.00 кб/с
Субтитры: тип: вшитые отключаемые, формат: SRT, язык: Русский

&
Общее
Уникальный идентификатор : 174346142817804201432699045226049835591 (0x8329D880B880ED02B5BD3E75BD021247)
Полное имя : D:РоздачиHe Got Game.1998.BDRip-AVC.PT.mkv
Формат : Matroska
Версия формата : Version 2
Размер файла : 2,18 Гбайт
Продолжительность : 2 ч. 10 м.
Общий поток : 2382 Кбит/сек
Название фильма : Его игра / He Got Game (1998) BDRip-AVC rip by rulya74
Дата кодирования : UTC 2012-04-16 07:53:02
Программа кодирования : mkvmerge v5.2.1 ('A Far Off Place') built on Jan 2 2012 23:21:10
Библиотека кодирования : libebml v1.2.3 + libmatroska v1.3.0

Видео
Идентификатор : 1
Формат : AVC
Формат/Информация : Advanced Video Codec
Профиль формата : High@L4.1
Параметр CABAC формата : Да
Параметр ReFrames формата : 13 кадров
Идентификатор кодека : V_MPEG4/ISO/AVC
Продолжительность : 2 ч. 10 м.
Битрейт : 1868 Кбит/сек
Ширина : 1024 пикселя
Высота : 554 пикселя
Соотношение сторон : 16:9
Частота кадров : 25,000 кадров/сек
Цветовое пространство : YUV
Субдискретизация насыщенности : 4:2:0
Битовая глубина : 8 бит
Тип развёртки : Прогрессивная
Бит/(Пиксели*Кадры) : 0.132
Размер потока : 1,67 Гбайт (77%)
Библиотека кодирования : x264 core 120 r2164 da19765
Настройки программы : cabac=1 / ref=13 / deblock=1:-3:-3 / analyse=0x3:0x113 / me=umh / subme=10 / psy=1 / psy_rd=1.00:0.00 / mixed_ref=1 / me_range=48 / chroma_me=1 / trellis=2 / 8x8dct=1 / cqm=0 / deadzone=21,11 / fast_pskip=1 / chroma_qp_offset=-2 / threads=6 / sliced_threads=0 / nr=0 / decimate=1 / interlaced=0 / bluray_compat=0 / constrained_intra=0 / bframes=12 / b_pyramid=2 / b_adapt=1 / b_bias=0 / direct=3 / weightb=1 / open_gop=0 / weightp=2 / keyint=250 / keyint_min=23 / scenecut=40 / intra_refresh=0 / rc_lookahead=40 / rc=2pass / mbtree=1 / bitrate=1868 / ratetol=1.0 / qcomp=0.60 / qpmin=10 / qpmax=51 / qpstep=4 / cplxblur=20.0 / qblur=0.5 / ip_ratio=1.40 / aq=1:1.00
Default : Да
Forced : Нет

Аудио #1
Идентификатор : 2
Формат : AC-3
Формат/Информация : Audio Coding 3
Расширение режима : CM (complete main)
Идентификатор кодека : A_AC3
Продолжительность : 2 ч. 10 м.
Вид битрейта : Постоянный
Битрейт : 384 Кбит/сек
Каналы : 6 каналов
Расположение каналов : Front: L C R, Side: L R, LFE
Частота : 48,0 КГц
Битовая глубина : 16 бит
Метод сжатия : С потерями
Задержка видео : 500 мс.
Размер потока : 360 Мбайт (16%)
Заголовок : Многоголосый закадровый «Twister»
Язык : Russian
Default : Да
Forced : Нет

Аудио #2
Идентификатор : 3
Формат : AC-3
Формат/Информация : Audio Coding 3
Расширение режима : CM (complete main)
Идентификатор кодека : A_AC3
Продолжительность : 2 ч. 10 м.
Вид битрейта : Постоянный
Битрейт : 128 Кбит/сек
Каналы : 2 канала
Расположение каналов : Front: L R
Частота : 48,0 КГц
Битовая глубина : 16 бит
Метод сжатия : С потерями
Размер потока : 120 Мбайт (5%)
Заголовок : Оригинал
Язык : English
Default : Нет
Forced : Нет

Текст
Идентификатор : 4
Формат : UTF-8
Идентификатор кодека : S_TEXT/UTF8
Идентификатор кодека/Информация : UTF-8 Plain Text
Язык : Russian
Default : Да
Forced : Нет

Меню
00:00:00.000 : en:00:00:00.000
00:09:36.920 : en:00:09:36.920
00:18:51.120 : en:00:18:51.120
00:34:39.000 : en:00:34:39.000
00:44:53.320 : en:00:44:53.320
00:57:04.160 : en:00:57:04.160
01:06:52.320 : en:01:06:52.320
01:15:14.280 : en:01:15:14.280
01:27:05.720 : en:01:27:05.720
01:39:08.440 : en:01:39:08.440
01:50:35.400 : en:01:50:35.400
02:00:35.800 : en:02:00:35.800



Скачать Его.игра.He.got.game.(Спайк.Ли).[1998.Драма.Спорт.BDRip-AVC].[MVO].torrent без регистрации
Золото ЗОЛОТАЯ РАЗДАЧА! СКАЧАННОЕ НЕ ЗАСЧИТЫВАЕТСЯ! Золото
Дата: Зарегистрирован   [ Тип: внутренний ] Как тут cкачать?
MAGNET ссылка
MAGNET ссылка


Скачать .torrent

11 KB

Статус: проверено DHT
Скачан: торрент - 125 раз, раздача полностью - 38 раз
Размер: 2,18 GB
Оценка:  - (Голосов: 0)
Поблагодарили: 2
Поделиться ссылкой на эту раздачу с друзьями:
В контактеFacebookОдноклассникиTwitterLivejournalМой МирLiveinternet
 

 
Показать сообщения:    


Вы не можете начинать темы
Вы не можете отвечать на сообщения
Вы не можете редактировать свои сообщения
Вы не можете удалять свои сообщения
Вы не можете голосовать в опросах
Вы не можете прикреплять файлы к сообщениям
Вы можете скачивать файлы