Loading...
Error

Скачать Скалолаз / Cliffhanger (Ренни Харлин) [1993, Боевик, триллер, BDRip] [DVO] торрент без регистрации

 
Статистика раздачи
Размер:  1,45 GB   |    Скачан:  161 раз
Сидов:  1  [  0 KB/s  ]  
 
Автор Сообщение

leon030982

[] 

Информация о фильме
Название: Скалолаз
Оригинальное название: Cliffhanger
Год выхода: 1993
Жанр: боевик, триллер, приключения
Режиссер: Ренни Харлин / Renny Harlin
В ролях: Сильвестр Сталлоне /Sylvester Stallone/, Джон Литгоу /John Lithgow/, Майкл Рукер /Michael Rooker/, Джанин Тернер /Janine Turner/, Рекс Линн /Rex Linn/, Кэролайн Гудолл /Caroline Goodall/, Леон /Leon/, Крэйг Фэйрбрасс /Craig Fairbrass/, Грегори Скотт Камминс /Gregory Scott Cummins/, Дэнис Форест /Denis Forest/, Мишель Джойнер /Michelle Joyner/, Макс Перлих /Max Perlich/

О фильме:
В горах после снежной лавины теряются 5 человек. На их поиски отправляется один из лучших альпинистов и горных проводников Гейб Уокер. Неожиданно он понимает, что его специально заманили в горы для совершенно другого дела.

Также становится ясно, что Гейб станет нежелательным свидетелем, от которого без раздумья «избавятся». Но свою жизнь он терять так просто не собирается и объявляет безжалостную войну банде вооруженных до зубов боевиков под предводительством международного террориста Эрика Куалена


Страна: США, Франция, Италия
Студия: Carolco Pictures, Le Studio Canal+, RCS Video, TriStar Pictures
Продолжительность: 01:53:00
Перевод: Профессиональный (Двухголосый, закадровый)

Файл
Кодек: XviD / AC3
Качество: BDRip
Видео: XviD, 720x304 (2.35:1), 23.976 fps, 1 386 Kbps (0.264 bit/pixel)
Звук: AC-3, 48.0 KHz, 6 ch, 448 Kbps, CBR
General
Complete name : E:hqf-cliff.avi
Format : AVI
Format/Info : Audio Video Interleave
File size : 1.45 GiB
Duration : 1h 53mn
Overall bit rate : 1 843 Kbps
Writing application : VirtualDubMod 1.5.10.2 (build 2540/release)
Writing library : VirtualDubMod build 2540/release

Video
ID : 0
Format : MPEG-4 Visual
Format profile : Advanced Simple@L5
Format settings, BVOP : 3
Format settings, QPel : No
Format settings, GMC : No warppoints
Format settings, Matrix : Custom
Codec ID : XVID
Codec ID/Hint : XviD
Duration : 1h 53mn
Bit rate : 1 386 Kbps
Width : 720 pixels
Height : 304 pixels
Display aspect ratio : 2.35:1
Frame rate : 23.976 fps
Color space : YUV
Chroma subsampling : 4:2:0
Bit depth : 8 bits
Scan type : Progressive
Compression mode : Lossy
Bits/(Pixel*Frame) : 0.264
Stream size : 1.09 GiB (75%)
Writing library : XviD 1.2.1 (UTC 2008-12-04)

Audio
ID : 1
Format : AC-3
Format/Info : Audio Coding 3
Mode extension : CM (complete main)
Format settings, Endianness : Big
Codec ID : 2000
Duration : 1h 53mn
Bit rate mode : Constant
Bit rate : 448 Kbps
Channel(s) : 6 channels
Channel positions : Front: L C R, Side: L R, LFE
Sampling rate : 48.0 KHz
Bit depth : 16 bits
Compression mode : Lossy
Stream size : 362 MiB (24%)
Alignment : Aligned on interleaves
Interleave, duration : 42 ms (1.00 video frame)
Interleave, preload duration : 512 ms



Скачать Скалолаз.Cliffhanger.(Ренни.Харлин).[1993.Боевик.триллер.BDRip].[DVO].torrent без регистрации
Золото ЗОЛОТАЯ РАЗДАЧА! СКАЧАННОЕ НЕ ЗАСЧИТЫВАЕТСЯ! Золото
Дата: Зарегистрирован   [ Тип: внутренний ] Как тут cкачать?
MAGNET ссылка
MAGNET ссылка


Скачать .torrent

117 KB

Статус: проверено DHT
Скачан: торрент - 161 раз, раздача полностью - 200 раз
Размер: 1,45 GB
Оценка:  5 (Голосов: 1)
Поблагодарили: 5
Поделиться ссылкой на эту раздачу с друзьями:
В контактеFacebookОдноклассникиTwitterLivejournalМой МирLiveinternet
 

 
Показать сообщения:    


Вы не можете начинать темы
Вы не можете отвечать на сообщения
Вы не можете редактировать свои сообщения
Вы не можете удалять свои сообщения
Вы не можете голосовать в опросах
Вы не можете прикреплять файлы к сообщениям
Вы можете скачивать файлы