Loading...
Error

Скачать Поймать вора / To Catch a Thief (Альфред Хичкок / Alfred Hitchcock) [1955, США, детектив, мелодрама, BDRip-AVC] 2xMVO (FilmPrestige, НТВ+) + VO Деваль-Видео + DVO + Sub (Rus, Eng) + Original Eng торрент без регистрации

 
Статистика раздачи
Размер:  2,99 GB   |    Скачан:  121 раз

Полного источника не было: 9 месяцев

 
Автор Сообщение

leon030982

[] 

Поймать вора / To Catch a Thief
Страна: США
Жанр: детектив, мелодрама
Год выпуска: 1955
Продолжительность: 01:46:31
Перевод: Профессиональный (многоголосый закадровый) FilmPrestige
Перевод 2: Профессиональный (многоголосый закадровый) НТВ+
Перевод 3: Студийный (одноголосый закадровый) Деваль-Видео
Перевод 4: Профессиональный (двухголосый закадровый)
Cубтитры: русские, английские
Оригинальная аудиодорожка: английский
Режиссер: Альфред Хичкок

В ролях: Кэри Грант /Cary Grant/, Грэйс Келли /Grace Kelly/, Джесси Ройс Лэндис /Jessie Royce Landis/, Джон Уильямс /John Williams/, Шарль Ванель /Charles Vanel/, Брижитт Обер /Brigitte Auber/, Жан Мартинелли /Jean Martinelli/, Жоржетт Ани /Georgette Anys/, Джордж Адриан /George Adrian/, Джон Алдерсон /John Alderson

Описание: Южная Франция взбудоражена серией дерзких ограблений, совершенных в стиле знаменитого вора по кличке «Кот». Сам «Кот», бывший участник движения Сопротивления, давно завязал и мирно проживает на вилле в окрестностях Ниццы. Он понимает, что единственный способ отвести от себя подозрения — поймать преступника. Для этого он узнает имена самых богатых отдыхающих. Среди них американская семья — мать и дочь Стивенс, с которыми он вскоре знакомится…

IMDB: 7.5
Kinopoisk: 7.571

Сэмпл
Качество видео: BDRip-AVC
Формат видео: MKV
Видео: AVC (H.264), 1024x576 (16:9), 23.976 fps, 2998 kbps avg, 0.212 bit/pixel
Аудио: Russian: AC3, 48 kHz, 16 bits, 192 kbps, 2.0 ch (MVO, FilmPrestige)
Аудио 2: Russian: AC3, 48 kHz, 16 bits, 192 kbps, 2.0 ch (MVO, НТВ+)
Аудио 3: Russian: AC3, 48 kHz, 16 bits, 224 kbps, 2.0 ch (VO, Деваль-Видео)
Аудио 4: English: AC3, 48 kHz, 16 bits, 224 kbps, 2.0 ch (Original)
Аудио 5: Russian: AC3, 48 kHz, 16 bits, 192 kbps, 2.0 ch (DVO, отдельным файлом)
Формат субтитров: softsub (SRT)
Навигация по главам: есть
Награды:
1956г. — Оскар
Лучшая операторская работа — Роберт Бёркс
Номинации:
1956г. — Оскар
Лучшие декорации
Лучшие костюмы
1955г. — Венецианский кинофестиваль
Золотой лев — Альфред Хичкок
Общее
Уникальный идентификатор : 232733853584762205743955736008434348786 (0xAF16E8E6A19641D381EEF59FD52372F2)
Полное имя : E:\Video\To.Catch.a.Thief.1955.BDRip-AVC.by.kvvk_2009\To.Catch.a.Thief.1955.BDRip-AVC.by.kvvk_2009.mkv
Формат : Matroska
Версия формата : Version 2
Размер файла : 2,85 Гбайт
Продолжительность : 1 ч. 46 м.
Общий поток : 3833 Кбит/сек
Дата кодирования : UTC 2012-04-17 16:08:45
Программа кодирования : mkvmerge v2.9.8 ('C'est le bon') built on Aug 13 2009 12:49:06
Библиотека кодирования : libebml v0.7.7 + libmatroska v0.8.1
Видео
Идентификатор : 1
Формат : AVC
Формат/Информация : Advanced Video Codec
Профиль формата : High@L4.1
Параметр CABAC формата : Да
Параметр ReFrames формата : 7 кадров
Идентификатор кодека : V_MPEG4/ISO/AVC
Продолжительность : 1 ч. 46 м.
Битрейт : 2998 Кбит/сек
Ширина : 1024 пикселя
Высота : 576 пикселей
Соотношение сторон : 16:9
Частота кадров : 23,976 кадра/сек
Цветовое пространство : YUV
Субдискретизация насыщенности : 4:2:0
Битовая глубина : 8 бит
Тип развёртки : Прогрессивная
Бит/(Пиксели*Кадры) : 0.212
Размер потока : 2,18 Гбайт (76%)
Библиотека кодирования : x264 core 120 r2164 da19765
Настройки программы : cabac=1 / ref=7 / deblock=1:-2:-1 / analyse=0x3:0x113 / me=umh / subme=9 / psy=1 / psy_rd=1.00:0.00 / mixed_ref=1 / me_range=32 / chroma_me=1 / trellis=2 / 8x8dct=1 / cqm=0 / deadzone=21,11 / fast_pskip=0 / chroma_qp_offset=-2 / threads=3 / sliced_threads=0 / nr=0 / decimate=0 / interlaced=0 / bluray_compat=0 / constrained_intra=0 / bframes=9 / b_pyramid=2 / b_adapt=2 / b_bias=0 / direct=3 / weightb=1 / open_gop=0 / weightp=2 / keyint=230 / keyint_min=23 / scenecut=40 / intra_refresh=0 / rc_lookahead=50 / rc=2pass / mbtree=1 / bitrate=2998 / ratetol=1.0 / qcomp=0.60 / qpmin=0 / qpmax=51 / qpstep=4 / cplxblur=20.0 / qblur=0.5 / ip_ratio=1.40 / aq=1:1.00
Язык : English
Default : Нет
Forced : Нет
Аудио #1
Идентификатор : 2
Формат : AC-3
Формат/Информация : Audio Coding 3
Расширение режима : CM (complete main)
Идентификатор кодека : A_AC3
Продолжительность : 1 ч. 46 м.
Вид битрейта : Постоянный
Битрейт : 192 Кбит/сек
Каналы : 2 канала
Расположение каналов : Front: L R
Частота : 48,0 КГц
Битовая глубина : 16 бит
Метод сжатия : С потерями
Размер потока : 146 Мбайт (5%)
Заголовок : AC3 2ch @ 192 kbps |MVO, FilmPrestige|
Язык : Russian
Default : Да
Forced : Нет
Аудио #2
Идентификатор : 3
Формат : AC-3
Формат/Информация : Audio Coding 3
Профиль формата : Dolby Digital
Расширение режима : CM (complete main)
Идентификатор кодека : A_AC3
Продолжительность : 1 ч. 46 м.
Вид битрейта : Постоянный
Битрейт : 192 Кбит/сек
Каналы : 2 канала
Расположение каналов : Front: L R
Частота : 48,0 КГц
Битовая глубина : 16 бит
Метод сжатия : С потерями
Размер потока : 146 Мбайт (5%)
Заголовок : AC3 2ch @ 192 kbps |MVO, NTV Plus|
Язык : Russian
Default : Нет
Forced : Нет
Аудио #3
Идентификатор : 4
Формат : AC-3
Формат/Информация : Audio Coding 3
Расширение режима : CM (complete main)
Идентификатор кодека : A_AC3
Продолжительность : 1 ч. 46 м.
Вид битрейта : Постоянный
Битрейт : 224 Кбит/сек
Каналы : 2 канала
Расположение каналов : Front: L R
Частота : 48,0 КГц
Битовая глубина : 16 бит
Метод сжатия : С потерями
Размер потока : 171 Мбайт (6%)
Заголовок : AC3 2ch @ 224 kbps |VO, Deval-Video|
Язык : Russian
Default : Нет
Forced : Нет
Аудио #4
Идентификатор : 5
Формат : AC-3
Формат/Информация : Audio Coding 3
Профиль формата : Dolby Digital
Расширение режима : CM (complete main)
Идентификатор кодека : A_AC3
Продолжительность : 1 ч. 46 м.
Вид битрейта : Постоянный
Битрейт : 224 Кбит/сек
Каналы : 2 канала
Расположение каналов : Front: L R
Частота : 48,0 КГц
Битовая глубина : 16 бит
Метод сжатия : С потерями
Размер потока : 171 Мбайт (6%)
Заголовок : AC3 2ch @ 224 kbps |Original|
Язык : English
Default : Нет
Forced : Нет
Текст #1
Идентификатор : 6
Формат : UTF-8
Идентификатор кодека : S_TEXT/UTF8
Идентификатор кодека/Информация : UTF-8 Plain Text
Язык : Russian
Default : Нет
Forced : Нет
Текст #2
Идентификатор : 7
Формат : UTF-8
Идентификатор кодека : S_TEXT/UTF8
Идентификатор кодека/Информация : UTF-8 Plain Text
Язык : English
Default : Нет
Forced : Нет
Меню
00:00:00.000 : en:00:00:00.000
00:05:30.997 : en:00:05:30.997
00:11:30.857 : en:00:11:30.857
00:17:38.599 : en:00:17:38.599
00:23:02.548 : en:00:23:02.548
00:26:54.112 : en:00:26:54.112
00:32:33.368 : en:00:32:33.368
00:40:09.324 : en:00:40:09.324
00:43:51.128 : en:00:43:51.128
00:51:01.892 : en:00:51:01.892
00:56:45.819 : en:00:56:45.819
01:00:42.973 : en:01:00:42.973
01:06:32.405 : en:01:06:32.405
01:11:01.507 : en:01:11:01.507
01:18:33.125 : en:01:18:33.125
01:29:22.983 : en:01:29:22.983
01:37:35.308 : en:01:37:35.308
01:44:42.026 : en:01:44:42.026
Общее
Полное имя : E:\Video\To.Catch.a.Thief.1955.BDRip-AVC.by.kvvk_2009\To.Catch.a.Thief.1955.BDRip-AVC.by.kvvk_2009.DVO.ac3
Формат : AC-3
Формат/Информация : Audio Coding 3
Размер файла : 146 Мбайт
Продолжительность : 1 ч. 46 м.
Режим общего битрейта : Постоянный
Общий поток : 192 Кбит/сек
Аудио
Формат : AC-3
Формат/Информация : Audio Coding 3
Профиль формата : Dolby Digital
Расширение режима : CM (complete main)
Продолжительность : 1 ч. 46 м.
Вид битрейта : Постоянный
Битрейт : 192 Кбит/сек
Каналы : 2 канала
Расположение каналов : Front: L R
Частота : 48,0 КГц
Битовая глубина : 16 бит
Метод сжатия : С потерями
Размер потока : 146 Мбайт (100%)



Скачать Поймать.вора.To.Catch.a.Thief.(Альфред.Хичкок.Alfred.Hitchcock).[1955.США.детектив.мелодрама.BDRip-AVC].2xMVO.(FilmPrestige.НТВ+).+.VO.Деваль-Видео.+.DVO.+.Sub.(Rus.Eng).+.Original.Eng.torrent без регистрации
Золото ЗОЛОТАЯ РАЗДАЧА! СКАЧАННОЕ НЕ ЗАСЧИТЫВАЕТСЯ! Золото
Дата: Зарегистрирован   [ Тип: внутренний ] Как тут cкачать?
MAGNET ссылка
MAGNET ссылка


Скачать .torrent

16 KB

Статус: проверено
Скачан: торрент - 121 раз, раздача полностью - 0 раз
Размер: 2,99 GB
Оценка:  - (Голосов: 0)
Поблагодарили: 2
Поделиться ссылкой на эту раздачу с друзьями:
В контактеFacebookОдноклассникиTwitterLivejournalМой МирLiveinternet
 

 
Показать сообщения:    


Вы не можете начинать темы
Вы не можете отвечать на сообщения
Вы не можете редактировать свои сообщения
Вы не можете удалять свои сообщения
Вы не можете голосовать в опросах
Вы не можете прикреплять файлы к сообщениям
Вы можете скачивать файлы