Loading...
Error

Скачать Любовь, измена и воровство / Любовь, обман и воровство / Love, Cheat And Steal (Уильям Карран) [1993, боевик, приключения, SATRip] [DVO] торрент без регистрации

 
Статистика раздачи
Размер:  1,53 GB   |    Скачан:  139 раз
Сидов:  1  [  0 KB/s  ]  
 
Автор Сообщение

leon030982

[] 

Любовь, измена и воровство / Любовь, обман и воровство / Love, Cheat And Steal
Страна: США
Жанр: боевик / приключения
Год выпуска: 1993
Продолжительность: 01:32:16
Перевод: Профессиональный (двухголосый закадровый)
Cубтитры: нет
Режиссер: Уильям Карран / William Curran
В ролях: Джон Литгоу, Эрик Робертс, Мадхен Амик, Ричард Эдсон, Доналд Моффэт, Дэвид Эйкройд, Дэн О'Херлихи

Описание: Подставленный собственной женой грабитель банков после семи лет тюрьмы бежит, чтобы отомстить своей благоверной, которая теперь замужем за банкиром. Воспользовавшись возможностями профессии ее нового мужа, он грабит банк с ее помощью. Финал вряд ли можно назвать хэппи-эндом для всех героев..

Качество видео: SATRip
Формат видео: DVD Video
Видео: MPEG2 Video 720x576 (4:3) 25.00fps 1947kbps
Аудио: MPEG Audio 48000Hz stereo 192kbps
General
Complete name : E:\Downloads\Love_Cheat_And_Steal.mpg
Format : MPEG-PS
File size : 1.53 GiB
Duration : 1h 32mn
Overall bit rate : 2 379 Kbps
Video
ID : 224 (0xE0)
Format : MPEG Video
Format version : Version 2
Format profile : Main@Main
Format settings, BVOP : Yes
Format settings, Matrix : Custom
Duration : 1h 32mn
Bit rate mode : Variable
Bit rate : 2 139 Kbps
Maximum bit rate : 1 947 Kbps
Width : 720 pixels
Height : 576 pixels
Display aspect ratio : 4:3
Frame rate : 25.000 fps
Standard : PAL
Color space : YUV
Chroma subsampling : 4:2:0
Bit depth : 8 bits
Scan type : Interlaced
Scan order : Top Field First
Compression mode : Lossy
Bits/(Pixel*Frame) : 0.206
Stream size : 1.38 GiB (90%)
Audio
ID : 192 (0xC0)
Format : MPEG Audio
Format version : Version 1
Format profile : Layer 2
Duration : 1h 32mn
Bit rate mode : Constant
Bit rate : 192 Kbps
Channel(s) : 2 channels
Sampling rate : 48.0 KHz
Compression mode : Lossy
Delay relative to video : -40ms
Stream size : 127 MiB (8%)



Скачать Любовь.измена.и.воровство.Любовь.обман.и.воровство.Love.Cheat.And.Steal.(Уильям.Карран).[1993.боевик.приключения.SATRip].[DVO].torrent без регистрации
Золото ЗОЛОТАЯ РАЗДАЧА! СКАЧАННОЕ НЕ ЗАСЧИТЫВАЕТСЯ! Золото
Дата: Зарегистрирован   [ Тип: внутренний ] Как тут cкачать?
MAGNET ссылка
MAGNET ссылка


Скачать .torrent

16 KB

Статус: проверено DHT
Скачан: торрент - 139 раз, раздача полностью - 6 раз
Размер: 1,53 GB
Оценка:  - (Голосов: 0)
Поблагодарили: 1
Поделиться ссылкой на эту раздачу с друзьями:
В контактеFacebookОдноклассникиTwitterLivejournalМой МирLiveinternet
 

 
Показать сообщения:    


Вы не можете начинать темы
Вы не можете отвечать на сообщения
Вы не можете редактировать свои сообщения
Вы не можете удалять свои сообщения
Вы не можете голосовать в опросах
Вы не можете прикреплять файлы к сообщениям
Вы можете скачивать файлы