Loading...
Error

Скачать Запретная территория / Forbidden Territory: Stanley's Search for Livingstone (Саймон Лэнгтон) [1997, биография, приключения, драма, DVDRip] [DVO] + [Original] (eng) + [Sub] (rus) торрент без регистрации

 
Статистика раздачи
Размер:  1,54 GB   |    Скачан:  130 раз
Сидов:  1  [  0 KB/s  ]  
 
Автор Сообщение

leon030982

[] 

Запретная территория / Forbidden Territory: Stanley's Search for Livingstone
Страна: США
Жанр: Биография, приключения, драма
Год выпуска: 1997
Продолжительность: 01:27:32
Аудио 1: Перевод - профессиональный (двухголосый закадровый)
Аудио 2: Оригинальная аудиодорожка, английский
Cубтитры: русские
Режиссер: Саймон Лэнгтон / Simon Langton

В ролях: Эйдан Куинн, Найджел Хоторн, Кабир Беди, Эдвард Фокс, Дилан Бейкер, Кристофер Фулфорд, Фэй Мастерсон, Роберт Уиллокс, Саймон Уильямс, Пол Бирчард

Описание: В 1869 году весь мир был взбудоражен известием о предполагаемой гибели в диких африканских джунглях выдающегося ученого — доктора Дэвида Ливингстона, который был одержим поисками истоков Нила. Издатель газеты «Нью-Йорк Геральд Трибьюн» отправил на поиски Ливингстона экспедицию во главе с британским журналистом Генри Мортоном Стэнли.
Выйдя из Занзибара, экспедиции предстояло преодолеть многие тысячи миль, переправляясь через кишащие крокодилами реки, отбиваясь от хищников и жестоких арабских работорговцев…

IMDB
Кинопоиск
Сэмпл
Релиз:
Качество видео: DVDRip с DVD5
Формат видео: AVI
Видео: MPEG-4 XviD, 688х512, соотношение сторон 4:3, 25.000 кадров/сек, 2118 Кбит/сек, 0.240 Бит/(Пиксели*Кадры)
Аудио 1: AC-3, 48,0 КГц, 192 Кбит/сек постоянный, 2 канала (стерео) - DVO, профессиональный
Аудио 2: AC-3, 48,0 КГц, 192 Кбит/сек постоянный, 2 канала (стерео) - оригинальный, английский (отдельно)
Субтитры: русские (srt)(softsub; отдельно)
Размер без оригинальной озвучки: 1.41 Гб
Общее
Полное имя : D:\_Ripp\15 Запретная территория\R1\all\Zapretnaia_territoria_ru192_mx.avi
Формат : AVI
Формат/Информация : Audio Video Interleave
Размер файла : 1,42 Гбайт
Продолжительность : 1 ч. 27 м.
Общий поток : 2319 Кбит/сек
Программа кодирования : VirtualDubMod 1.5.10.2 (build 2540/release)
Библиотека кодирования : VirtualDubMod build 2540/release
Видео
Идентификатор : 0
Формат : MPEG-4 Visual
Профиль формата : Advanced Simple@L5
Параметр BVOP формата : 1
Параметр QPel формата : Нет
Параметр GMC формата : Без точки перехода
Параметр матрицы формата : Default (MPEG)
Идентификатор кодека : XVID
Идентификатор кодека/Подсказка : XviD
Продолжительность : 1 ч. 27 м.
Битрейт : 2118 Кбит/сек
Ширина : 688 пикселей
Высота : 512 пикселей
Соотношение сторон : 4:3
Частота кадров : 25,000 кадров/сек
Цветовое пространство : YUV
Субдискретизация насыщенности : 4:2:0
Битовая глубина : 8 бит
Тип развёртки : Прогрессивная
Метод сжатия : С потерями
Бит/(Пиксели*Кадры) : 0.240
Размер потока : 1,29 Гбайт (91%)
Библиотека кодирования : XviD 64
Аудио
Идентификатор : 1
Формат : AC-3
Формат/Информация : Audio Coding 3
Расширение режима : CM (complete main)
Идентификатор кодека : 2000
Продолжительность : 1 ч. 27 м.
Вид битрейта : Постоянный
Битрейт : 192 Кбит/сек
Каналы : 2 канала
Расположение каналов : Front: L R
Частота : 48,0 КГц
Битовая глубина : 16 бит
Метод сжатия : С потерями
Размер потока : 120 Мбайт (8%)
Выравнивание : Разделение по промежуткам
Продолжительность промежутка : 40 мс. (1,00 видеокадр)
Время предзагрузки промежутка : 500 мс.
Заголовок : Russian, AC-3, 2ch, 192kbps
Пожалуйста! Не забывайте нажать "Спасибо!"



Скачать Запретная.территория.Forbidden.Territory.Stanley's.Search.for.Livingstone.(Саймон.Лэнгтон).[1997.биография.приключения.драма.DVDRip].[DVO].+.[Original].(eng).+.[Sub].(rus).torrent без регистрации
Золото ЗОЛОТАЯ РАЗДАЧА! СКАЧАННОЕ НЕ ЗАСЧИТЫВАЕТСЯ! Золото
Дата: Зарегистрирован   [ Тип: внутренний ] Как тут cкачать?
MAGNET ссылка
MAGNET ссылка


Скачать .torrent

16 KB

Статус: проверено DHT
Скачан: торрент - 130 раз, раздача полностью - 13 раз
Размер: 1,54 GB
Оценка:  - (Голосов: 0)
Поблагодарили: 1
Поделиться ссылкой на эту раздачу с друзьями:
В контактеFacebookОдноклассникиTwitterLivejournalМой МирLiveinternet
 

 
Показать сообщения:    


Вы не можете начинать темы
Вы не можете отвечать на сообщения
Вы не можете редактировать свои сообщения
Вы не можете удалять свои сообщения
Вы не можете голосовать в опросах
Вы не можете прикреплять файлы к сообщениям
Вы можете скачивать файлы