Loading...
Error

Скачать Сердце индейской девушки / The Heart of an Indian Maid (Неизвестен) [1911, Вестерн, немое кино, VHSRip] [Sub Rus] торрент без регистрации

 
Статистика раздачи
Размер:  220 MB   |    Скачан:  132 раза
Сидов:  1  [  0 KB/s  ]  
 
Автор Сообщение

leon030982

[] 

Сердце индейской девушки / The Heart of an Indian Maid
Страна: США
Жанр: Вестерн, немое кино
Год выпуска: 1911
Продолжительность: 00:12:02
Перевод: Субтитры
Cубтитры: русские
Режиссер: Неизвестен
В ролях: Пирл Уайт

Описание: Охотник на бизонов Гарри живёт в лесной хижине с женой и дочкой. Отправившись с друзьями на очередную охоту, он попадает в плен к индейцам. От неминуемой гибели его спасает прекрасная дочь вождя...

Доп. информация: Американский филиал фирмы братьев Пате выпускал в то время небольшие, но яркие фильмы, раскрашенные по трафарету. Внятная эмоциональная история, беспристрастный взгляд на отношения индейцев и белых первопоселенцев - всё это вдохновило других режиссёров развивать эту тему (тут можно назвать такие фильмы, как "Сердце индианки" (1912) Томаса Инса и "Муж индианки" (1914) Де Милля).
Одну из центральных ролей (индианка Вайнона) исполнила начинающая актриса, будущая звезда первых американских киносериалов Пирл Уайт
"Пирл Уайт не была единственной. На её родине, в Соединённых Штатах, одновременно с ней, а то и чуть раньше, появились и другие актрисы, не менее динамичные и отважные, столь же неустрашимо преодолевающие все опасности и препятствия. И всё-таки Пирл Уайт стала знаменем приключенческого жанра эпохи немого кино, а названия лучших её лент сохранились в памяти последующих поколений"
Из книги "Звёзды немого кино"

Рип: vito11
Синхронизация звука: vito11
Перевод: vito11
Создание субтитров: vito11
Качество видео: VHSRip
Формат видео: AVI
Видео: 592x432 (1.37:1), 25 fps, XviD build 47 ~2547 kbps avg, 0.40 bit/pixel
Аудио: MPEG Audio Layer 3 48000Hz stereo 192Kbps
Формат субтитров: softsub (SRT)
General
Complete name : D:\КИНО\ОСТАЁТСЯ\Американское\220_МБ_Сердце индейской девушки\The Heart of an Indian Maid (1911)\Сердце индейской девушки.avi
Format : AVI
Format/Info : Audio Video Interleave
File size : 220 MiB
Duration : 12mn 2s
Overall bit rate : 2 558 Kbps
Video
ID : 0
Format : MPEG-4 Visual
Format profile : Advanced Simple@L5
Format settings, BVOP : 2
Format settings, QPel : No
Format settings, GMC : No warppoints
Format settings, Matrix : Default (H.263)
Codec ID : XVID
Codec ID/Hint : XviD
Duration : 12mn 2s
Bit rate : 2 356 Kbps
Width : 592 pixels
Height : 432 pixels
Display aspect ratio : 1.370
Frame rate : 25.000 fps
Color space : YUV
Chroma subsampling : 4:2:0
Bit depth : 8 bits
Scan type : Progressive
Compression mode : Lossy
Bits/(Pixel*Frame) : 0.369
Stream size : 203 MiB (92%)
Writing library : XviD 1.2.0.dev47 (UTC 2006-11-01)
Audio
ID : 1
Format : MPEG Audio
Format version : Version 1
Format profile : Layer 3
Mode : Joint stereo
Mode extension : MS Stereo
Codec ID : 55
Codec ID/Hint : MP3
Duration : 12mn 1s
Source duration : 12mn 1s
Bit rate mode : Constant
Bit rate : 192 Kbps
Channel(s) : 2 channels
Sampling rate : 48.0 KHz
Compression mode : Lossy
Stream size : 16.5 MiB (8%)
Alignment : Aligned on interleaves
Interleave, duration : 40 ms (1.00 video frame)



Скачать Сердце.индейской.девушки.The.Heart.of.an.Indian.Maid.(Неизвестен).[1911.Вестерн.немое.кино.VHSRip].[Sub.Rus].torrent без регистрации
Золото ЗОЛОТАЯ РАЗДАЧА! СКАЧАННОЕ НЕ ЗАСЧИТЫВАЕТСЯ! Золото
Дата: Зарегистрирован   [ Тип: внутренний ] Как тут cкачать?
MAGNET ссылка
MAGNET ссылка


Скачать .torrent

18 KB

Статус: проверено DHT
Скачан: торрент - 132 раз, раздача полностью - 8 раз
Размер: 220 MB
Оценка:  - (Голосов: 0)
Поблагодарили: 1
Поделиться ссылкой на эту раздачу с друзьями:
В контактеFacebookОдноклассникиTwitterLivejournalМой МирLiveinternet
 

 
Показать сообщения:    


Вы не можете начинать темы
Вы не можете отвечать на сообщения
Вы не можете редактировать свои сообщения
Вы не можете удалять свои сообщения
Вы не можете голосовать в опросах
Вы не можете прикреплять файлы к сообщениям
Вы можете скачивать файлы