Loading...
Error

Скачать Война Мерфи / Murphy's War (Питер Йэйтс) [1971, боевик, драма, военный, DVDRip-AVC] [MVO] + [Original Eng] + [Sub Eng] торрент без регистрации

 
Статистика раздачи
Размер:  2,09 GB   |    Скачан:  147 раз
Сидов:  1  [  0 KB/s  ]  
 
Автор Сообщение

leon030982

[] 

Война Мерфи / Murphy's War
Страна: Великобритания / Hemdale | Michael Deeley - Peter Yates Films
Жанр: боевик, драма, военный
Год выпуска: 1971
Продолжительность: 01:46:34 [NTSC]
Перевод: Профессиональный (многоголосый закадровый)
Cубтитры: английские
Оригинальная аудиодорожка: английский
Режиссер: Питер Йэйтс /Peter Yates
Сценарий: Max Catto, Стёрлинг Силлифант

В ролях: Питер О'Тул, Шин Филлипс, Филип Нуаре, Хорст Йенсон, Джон Хэллэм, Инго Могендорф

Описание:
Хорошо поставленный, захватывающий боевик о войне, в котором наряду с батальными сценами дается психологический портрет английского моряка (О Тул), который один остался в живых после того, как все его товарищи были зверски убиты фашистами. Он одержим местью, и это его личная война. Сценарист Стерлинг Силлифант. Фильм был показан по нашему телевидению в 1995 году. На видеорынке достаточно редок. Panavision. (Иванов М.)
Несомненно, один из самых захватывающих героических фильмов о Второй мировой войне, прекрасно поставленная и мастерски снятая картина, воплотившая на экране образ героя-одиночки, поднявшего в небо свой самолет против врагов, рискуя жизнью.

Качество видео: DVDRip
Формат видео: MP4
Видео: AVC, 704(832)x360 - анаморфное (2.311), 23.976 fps, ~2 566 Kbps
Аудио1: AAC LC, 48.0 KHz, 2 channels, ~113 Kbps, ru
Аудио2: AAC LC, 48.0 KHz, 2 channels, ~116 Kbps, en
Формат субтитров: softsub (SRT)
Рип с
Попытался максимум деталей сохранит от исходника. Поэтому, никакого ресайза и минимум фильтрации.
От меня: Реально, совсем другое качество. Никакого сравнения с плюгавым трансфером в PAL от "DVD Магия". Здесь взяли исходный NTSC и отсинхронили с русской дорогой из PAL-версии. Рассинхрона незамечено - толково сработали.
Kinopoisk 6.80 (1 333) / IMDB 7.281 (39)
Отличное, нестандартное кино. Когда война переходит в обречённость на одержимость, в безумие личной мести. Кино с правильным финалом, не дающим его забыть. Первый раз видел по НТВ ещё в 1994 году - крепко запало. Не зная названия и актёра глав.роли, через 14 лет я его таки нашёл (хорошо, что Филипа Нуаре запомнил) в виде говнодиска от ДВДМагии. И вот оно - качество.
До чего же прекрасная амфибия была создана Грумманом!
Format : MPEG-4
Format profile : Base Media
Codec ID : isom
File size : 2.09 GiB
Duration : 1h 46mn
Overall bit rate : 2 802 Kbps
Video
ID : 1
Format : AVC
Format/Info : Advanced Video Codec
Format profile : High@L3.0
Format settings, CABAC : Yes
Format settings, ReFrames : 4 frames
Codec ID : avc1
Codec ID/Info : Advanced Video Coding
Duration : 1h 46mn
Bit rate mode : Variable
Bit rate : 2 566 Kbps
Maximum bit rate : 9 053 Kbps
Width : 704 pixels
Height : 360 pixels
Display aspect ratio : 2.35
Frame rate mode : Constant
Frame rate : 23.976 fps
Resolution : 24 bits
Colorimetry : 4:2:0
Scan type : Progressive
Bits/(Pixel*Frame) : 0.422
Stream size : 1.91 GiB (92%)
Title : Murphy's War (1971)
Writing library : x264 core 88 r1471 1144615
Encoding settings : cabac=1 / ref=4 / deblock=1:-2:-1 / analyse=0x3:0x133 / me=umh / subme=9 / psy=1 / psy_rd=0.80:0.40 / mixed_ref=1 / me_range=8 / chroma_me=1 / trellis=1 / 8x8dct=1 / cqm=0 / deadzone=17,6 / fast_pskip=1 / chroma_qp_offset=-4 / threads=3 / sliced_threads=0 / nr=0 / decimate=1 / mbaff=0 / constrained_intra=0 / bframes=3 / b_pyramid=2 / b_adapt=2 / b_bias=0 / direct=2 / wpredb=1 / wpredp=2 / keyint=288 / keyint_min=48 / scenecut=24 / intra_refresh=0 / rc_lookahead=40 / rc=crf / mbtree=1 / crf=17.0 / qcomp=0.60 / qpmin=5 / qpmax=51 / qpstep=6 / ip_ratio=1.10 / aq=1:1.00
Language : English
Audio #1
ID : 2
Format : AAC
Format/Info : Advanced Audio Codec
Format version : Version 4
Format profile : LC
Format settings, SBR : No
Codec ID : 40
Duration : 1h 46mn
Bit rate mode : Variable
Bit rate : 113 Kbps
Maximum bit rate : 154 Kbps
Channel(s) : 2 channels
Channel positions : L R
Sampling rate : 48.0 KHz
Resolution : 16 bits
Stream size : 86.5 MiB (4%)
Title : rus MVO
Language : Russian
Audio #2
ID : 3
Format : AAC
Format/Info : Advanced Audio Codec
Format version : Version 4
Format profile : LC
Format settings, SBR : No
Codec ID : 40
Duration : 1h 46mn
Bit rate mode : Variable
Bit rate : 116 Kbps
Maximum bit rate : 154 Kbps
Channel(s) : 2 channels
Channel positions : L R
Sampling rate : 48.0 KHz
Resolution : 16 bits
Stream size : 88.5 MiB (4%)
Title : eng
Language : English
Text
ID : 4
Format : Timed text
Codec ID : tx3g
Duration : 1h 46mn
Bit rate mode : Variable
Bit rate : 25 bps
Stream size : 19.7 KiB (0%)
Title : eng
Language : English
JPEG 95% без сабсемплинга (деградации) цвета = PNG.
JPEG 95% без сабсемплинга (деградации) цвета = PNG. Вверху рип - внизу DVD.



Скачать Война.Мерфи.Murphy's.War.(Питер.Йэйтс).[1971.боевик.драма.военный.DVDRip-AVC].[MVO].+.[Original.Eng].+.[Sub.Eng].torrent без регистрации
Золото ЗОЛОТАЯ РАЗДАЧА! СКАЧАННОЕ НЕ ЗАСЧИТЫВАЕТСЯ! Золото
Дата: Зарегистрирован   [ Тип: внутренний ] Как тут cкачать?
MAGNET ссылка
MAGNET ссылка


Скачать .torrent

11 KB

Статус: проверено DHT
Скачан: торрент - 147 раз, раздача полностью - 20 раз
Размер: 2,09 GB
Оценка:  - (Голосов: 0)
Поблагодарили: 2
Поделиться ссылкой на эту раздачу с друзьями:
В контактеFacebookОдноклассникиTwitterLivejournalМой МирLiveinternet
 

 
Показать сообщения:    


Вы не можете начинать темы
Вы не можете отвечать на сообщения
Вы не можете редактировать свои сообщения
Вы не можете удалять свои сообщения
Вы не можете голосовать в опросах
Вы не можете прикреплять файлы к сообщениям
Вы можете скачивать файлы