Loading...
Error

Скачать Круче только яйца / Hard Boiled Yeggs (Скотт "Перс" Пемброук) [1918, Комедия, DVDRip] [Original Eng] торрент без регистрации

 
Статистика раздачи
Размер:  277 MB   |    Скачан:  120 раз

Полного источника не было: 21 минута

 
Автор Сообщение

leon030982

[] 

Круче только яйца / Hard Boiled Yeggs
Страна: США
Жанр: Комедия
Год выпуска: 1918
Продолжительность: 00:25:38
Перевод: Интертитры (русские)
Cубтитры: нет
Оригинальная аудиодорожка: английский
Режиссер: Скотт "Перс" Пемброук / Scott Pembroke
В ролях: Билли Вест, Этлин Гибсон, Уильям Дайер, Лес Бейтс

Описание: Билли (теперь точно Билли!) получил наследство, и чтобы вступить в права, поехал в город к адвокату. Но у него два дальних родственника, два брата с довольно нечистыми помыслами. А тут еще адвокат говорит... Впрочем, не буду пересказывать фильм, скажу только, что когда я его впервые увидел, я был восхищен и удивлен, ибо впервые Билли Вест играет роль, не имитируя Чарли Чаплина! В этом фильме мы можем увидеть самого Билли Веста, который не пытается никого другого изображать!

Релиз

Качество видео: DVDRip
Формат видео: AVI
Видео: 640x480 (1.33:1), 23.976 fps, XviD build 46 ~1372 kbps avg, 0.19 bit/pixel
Аудио: 44.100 kHz, MPEG Layer 3, 2 ch, ~128.00 kbps avg
General
Complete name : D:\Раздачи\Hard.Boiled.Yeggs.1926.Billy.West.rus.avi
Format : AVI
Format/Info : Audio Video Interleave
File size : 277 MiB
Duration : 25mn 38s
Overall bit rate : 1 509 Kbps
Writing application : VirtualDubMod 1.5.10.2 (build 2540/release)
Writing library : VirtualDubMod build 2540/release
Video
ID : 0
Format : MPEG-4 Visual
Format profile : Advanced Simple@L5
Format settings, BVOP : 2
Format settings, QPel : No
Format settings, GMC : No warppoints
Format settings, Matrix : Default (H.263)
Codec ID : XVID
Codec ID/Hint : XviD
Duration : 25mn 38s
Bit rate : 1 372 Kbps
Width : 640 pixels
Height : 480 pixels
Display aspect ratio : 4:3
Frame rate : 23.976 fps
Color space : YUV
Chroma subsampling : 4:2:0
Bit depth : 8 bits
Scan type : Progressive
Compression mode : Lossy
Bits/(Pixel*Frame) : 0.186
Stream size : 252 MiB (91%)
Writing library : XviD 1.1.2 (UTC 2006-11-01)
Audio
ID : 1
Format : MPEG Audio
Format version : Version 1
Format profile : Layer 3
Mode : Joint stereo
Mode extension : MS Stereo
Codec ID : 55
Codec ID/Hint : MP3
Duration : 25mn 32s
Bit rate mode : Constant
Bit rate : 128 Kbps
Channel(s) : 2 channels
Sampling rate : 44.1 KHz
Compression mode : Lossy
Stream size : 23.4 MiB (8%)
Alignment : Split accross interleaves
Interleave, duration : 42 ms (1.00 video frame)
Interleave, preload duration : 500 ms
Writing library : LAME3.98.4



Скачать Круче.только.яйца.Hard.Boiled.Yeggs.(Скотт."Перс".Пемброук).[1918.Комедия.DVDRip].[Original.Eng].torrent без регистрации
Золото ЗОЛОТАЯ РАЗДАЧА! СКАЧАННОЕ НЕ ЗАСЧИТЫВАЕТСЯ! Золото
Дата: Зарегистрирован   [ Тип: внутренний ] Как тут cкачать?
MAGNET ссылка
MAGNET ссылка


Скачать .torrent

11 KB

Статус: проверено DHT
Скачан: торрент - 120 раз, раздача полностью - 2 раз
Размер: 277 MB
Оценка:  - (Голосов: 0)
Поблагодарили: 1
Поделиться ссылкой на эту раздачу с друзьями:
В контактеFacebookОдноклассникиTwitterLivejournalМой МирLiveinternet
 

 
Показать сообщения:    


Вы не можете начинать темы
Вы не можете отвечать на сообщения
Вы не можете редактировать свои сообщения
Вы не можете удалять свои сообщения
Вы не можете голосовать в опросах
Вы не можете прикреплять файлы к сообщениям
Вы можете скачивать файлы