Loading...
Error

Скачать Голый космос / The Creature Wasn't Nice / Naked Space (Брюс Киммел) [1983, ужасы, фантастика, мелодрама, комедия, DVDRip] [AVO] торрент без регистрации

 
Статистика раздачи
Размер:  1,37 GB   |    Скачан:  154 раза
Сидов:  1  [  0 KB/s  ]  
 
Автор Сообщение

leon030982

[] 

Голый космос / The Creature Wasn't Nice / Naked Space

Страна: США
Жанр: ужасы, фантастика, мелодрама, комедия
Год выпуска: 1983
Продолжительность: 01:21:02
Рейтинг MMPA:
Перевод: Авторский (одноголосый закадровый) [Павел Санаев]
Cубтитры: нет
Режиссер: Брюс Киммел / Bruce Kimmel
В ролях: Синди Уильямс, Брюс Киммел, Лесли Нильсен, Геррит Грэм, Патрик Макни, Пол Бринегар,Кэрол Энн Уильямс, Маргарет Уиллок
Описание: 2012 год. На борту космического корабля «Головокружение» — пять человек: смелый, но тупой капитан, психолог с аппетитными формами, врач с манией величия, повар-отравитель и свихнувшийся на порнографии бортмеханик.
Доп. информация: Здесь представлен рип с американского DVD5 R1 издания. Перевод Павла Санаева был взят из релиза, за что спасибо .

Качество видео: DVDRip [исходник DVD5 R1
]
Формат видео: AVI
Видео: Xvid, 624x480, 23,98 fps, 2308 kbps, 0.32 bit/pixel
Аудио: MPEG Audio Layer 3, 48 kHz, 96 kbps, 2/0 (L,R) ch
General
Complete name : Naked.Space.1983.DVDRip.Xvid-Zombie.Lee.avi
Format : AVI
Format/Info : Audio Video Interleave
File size : 1.37 GiB
Duration : 1h 21mn
Overall bit rate : 2 414 Kbps
Writing library : VirtualDub build 33790/release
Video
ID : 0
Format : MPEG-4 Visual
Format profile : Advanced Simple@L5
Format settings, BVOP : 1
Format settings, QPel : No
Format settings, GMC : No warppoints
Format settings, Matrix : Default (MPEG)
Codec ID : XVID
Codec ID/Hint : XviD
Duration : 1h 21mn
Bit rate : 2 308 Kbps
Width : 624 pixels
Height : 480 pixels
Display aspect ratio : 1.300
Frame rate : 23.976 fps
Color space : YUV
Chroma subsampling : 4:2:0
Bit depth : 8 bits
Scan type : Progressive
Compression mode : Lossy
Bits/(Pixel*Frame) : 0.321
Stream size : 1.31 GiB (96%)
Writing library : XviD 64
Audio
ID : 1
Format : MPEG Audio
Format version : Version 1
Format profile : Layer 3
Mode : Joint stereo
Codec ID : 55
Codec ID/Hint : MP3
Duration : 1h 21mn
Bit rate mode : Constant
Bit rate : 96.0 Kbps
Channel(s) : 2 channels
Sampling rate : 48.0 KHz
Compression mode : Lossy
Delay relative to video : 17ms
Stream size : 55.6 MiB (4%)
Alignment : Split accross interleaves
Interleave, duration : 42 ms (1.00 video frame)
Interleave, preload duration : 500 ms



Скачать Голый.космос.The.Creature.Wasn't.Nice.Naked.Space.(Брюс.Киммел).[1983.ужасы.фантастика.мелодрама.комедия.DVDRip].[AVO].torrent без регистрации
Золото ЗОЛОТАЯ РАЗДАЧА! СКАЧАННОЕ НЕ ЗАСЧИТЫВАЕТСЯ! Золото
Дата: Зарегистрирован   [ Тип: внутренний ] Как тут cкачать?
MAGNET ссылка
MAGNET ссылка


Скачать .torrent

14 KB

Статус: проверено DHT
Скачан: торрент - 154 раз, раздача полностью - 66 раз
Размер: 1,37 GB
Оценка:  - (Голосов: 0)
Поблагодарили: 3
Поделиться ссылкой на эту раздачу с друзьями:
В контактеFacebookОдноклассникиTwitterLivejournalМой МирLiveinternet
 

 
Показать сообщения:    


Вы не можете начинать темы
Вы не можете отвечать на сообщения
Вы не можете редактировать свои сообщения
Вы не можете удалять свои сообщения
Вы не можете голосовать в опросах
Вы не можете прикреплять файлы к сообщениям
Вы можете скачивать файлы