Loading...
Error

Скачать Космические охотники / Space Raiders (Ховард Р. Коэн) [1983, фантастика, боевик, приключения, DVDRip] [VO] торрент без регистрации

 
Статистика раздачи
Размер:  1,37 GB   |    Скачан:  147 раз
Сидов:  1  [  0 KB/s  ]  
 
Автор Сообщение

leon030982

[] 

Космические охотники / Space Raiders

«He's 10 years old and they've taken him 10-million miles into space»
Страна: США
Жанр: фантастика, боевик, приключения
Год выпуска: 1983
Продолжительность: 01:19:06
Рейтинг MMPA:
Перевод: Одноголосый закадровый [Вячеслав Котов]
Cубтитры: нет
Режиссер: Ховард Р. Коэн / Howard R. Cohen
В ролях: Винс Эдвардс, Дэвид Менденхолл, Пэтси Пиз, Том Кристофер, Лука Берковичи, Дрю Снайдер, Рэй Стюарт, Джордж Дикерсон, Майкл Миллер, Вирджиния Кайсер
Описание: Футуристическая сказка об удивительных приключениях десятилетнего мальчика в далёком космосе.
Доп. информация: Здесь представлен рип с немецкого DVD5 R2 издания. Перевод Вячеслава Котова был взят из релиза, за что спасибо .

Качество видео: DVDRip [исходник DVD5 R2]
Формат видео: AVI
Видео: Xvid, 688x528, 25 fps, 2273 kbps, 0.25 bit/pixel
Аудио: AC3 Dolby Digital, 48 kHz, 192 kbps, 2/0 (L,R) ch
General
Complete name : Space.Raiders.1983.DVDRip.Xvid.AC3-Zombie.Lee.avi
Format : AVI
Format/Info : Audio Video Interleave
File size : 1.37 GiB
Duration : 1h 19mn
Overall bit rate : 2 476 Kbps
Writing library : VirtualDub build 33790/release
Video
ID : 0
Format : MPEG-4 Visual
Format profile : Advanced Simple@L5
Format settings, BVOP : 1
Format settings, QPel : No
Format settings, GMC : No warppoints
Format settings, Matrix : Default (MPEG)
Codec ID : XVID
Codec ID/Hint : XviD
Duration : 1h 19mn
Bit rate : 2 274 Kbps
Width : 688 pixels
Height : 528 pixels
Display aspect ratio : 4:3
Frame rate : 25.000 fps
Color space : YUV
Chroma subsampling : 4:2:0
Bit depth : 8 bits
Scan type : Progressive
Compression mode : Lossy
Bits/(Pixel*Frame) : 0.250
Stream size : 1.26 GiB (92%)
Writing library : XviD 64
Audio
ID : 1
Format : AC-3
Format/Info : Audio Coding 3
Mode extension : CM (complete main)
Codec ID : 2000
Duration : 1h 19mn
Bit rate mode : Constant
Bit rate : 192 Kbps
Channel(s) : 2 channels
Channel positions : Front: L R
Sampling rate : 48.0 KHz
Bit depth : 16 bits
Compression mode : Lossy
Stream size : 109 MiB (8%)
Alignment : Aligned on interleaves
Interleave, duration : 40 ms (1.00 video frame)
Interleave, preload duration : 512 ms



Скачать Космические.охотники.Space.Raiders.(Ховард.Р.Коэн).[1983.фантастика.боевик.приключения.DVDRip].[VO].torrent без регистрации
Золото ЗОЛОТАЯ РАЗДАЧА! СКАЧАННОЕ НЕ ЗАСЧИТЫВАЕТСЯ! Золото
Дата: Зарегистрирован   [ Тип: внутренний ] Как тут cкачать?
MAGNET ссылка
MAGNET ссылка


Скачать .torrent

14 KB

Статус: проверено DHT
Скачан: торрент - 147 раз, раздача полностью - 22 раз
Размер: 1,37 GB
Оценка:  - (Голосов: 0)
Поблагодарили: 1
Поделиться ссылкой на эту раздачу с друзьями:
В контактеFacebookОдноклассникиTwitterLivejournalМой МирLiveinternet
 

 
Показать сообщения:    


Вы не можете начинать темы
Вы не можете отвечать на сообщения
Вы не можете редактировать свои сообщения
Вы не можете удалять свои сообщения
Вы не можете голосовать в опросах
Вы не можете прикреплять файлы к сообщениям
Вы можете скачивать файлы