Loading...
Error

Скачать Ледяной человек / Iceman (Фред Скеписи) [1984, фантастика, драма, DVDRip] [MVO] торрент без регистрации

 
Статистика раздачи
Размер:  743 MB   |    Скачан:  5379 раз
Сидов:  1  [  0 KB/s  ]  
 
Автор Сообщение

leon030982

[] 

Ледяной человек / Iceman
Страна: США
Жанр: фантастика, драма
Год выпуска: 1984
Продолжительность: 01:36:30
Перевод: Профессиональный (многоголосый закадровый)
Cубтитры: нет
Режиссер: Фред Скеписи / Fred Schepisi
В ролях: Тимоти Хаттон, Линдси Краус, Джон Лоун, Йозеф Зоммер, Дэвид Стрэтэйрн, Филип Акин, Дэнни Гловер, Амелия Холл, Джеймс Толкан

Описание: Научная экспедиция обнаруживает тело доисторического человека, который, как выясняется в последствии, оказался живым. Это событие будоражит весь научный мир. Однако тщеславие некоторых ученых, пытающихся прославиться за счет невероятного открытия приобретает угрожающий характер. На защиту долгожителя встает один из молодых специалистов, тем самым, ставя под угрозу свою будущую карьеру...



Качество видео: DVDRip
Формат видео: AVI
Видео: 640x272 (2.35:1), 25 fps, XviD build 65 ~938 kbps avg, 0.22 bit/pixel
Аудио: 48 kHz, MPEG Layer 3, 2 ch, ~128.00 kbps avg
C:\Users\Videos\Iceman_1984.avi
General
Complete name : C:\Users\Videos\Iceman_1984.avi
Format : AVI
Format/Info : Audio Video Interleave
File size : 743 MiB
Duration : 1h 36mn
Overall bit rate : 1 077 Kbps
Writing application : VirtualDubMod 1.5.10.3 | www.virtualdub-fr.org || (build 2550/release)
Writing library : VirtualDubMod build 2550/release
Video #0
ID : 0
Format : MPEG-4 Visual
Format profile : Advanced Simple@L5
Format settings, BVOP : 2
Format settings, QPel : No
Format settings, GMC : No warppoints
Format settings, Matrix : Custom
Codec ID : XVID
Codec ID/Hint : XviD
Duration : 1h 36mn
Bit rate : 939 Kbps
Width : 640 pixels
Height : 272 pixels
Display aspect ratio : 2.35:1
Frame rate : 25.000 fps
Color space : YUV
Chroma subsampling : 4:2:0
Bit depth : 8 bits
Scan type : Progressive
Compression mode : Lossy
Bits/(Pixel*Frame) : 0.216
Stream size : 648 MiB (87%)
Writing library : XviD 65
Audio #1
ID : 1
Format : MPEG Audio
Format version : Version 1
Format profile : Layer 3
Codec ID : 55
Codec ID/Hint : MP3
Duration : 1h 36mn
Bit rate mode : Constant
Bit rate : 128 Kbps
Channel(s) : 2 channels
Sampling rate : 48.0 KHz
Compression mode : Lossy
Stream size : 88.4 MiB (12%)
Alignment : Aligned on interleaves
Interleave, duration : 40 ms (1.00 video frame)
Interleave, preload duration : 504 ms
Writing library : LAME3.98r
Encoding settings : -m s -V 4 -q 2 -lowpass 17 -b 128



Скачать Ледяной.человек.Iceman.(Фред.Скеписи).[1984.фантастика.драма.DVDRip].[MVO].torrent без регистрации
Золото ЗОЛОТАЯ РАЗДАЧА! СКАЧАННОЕ НЕ ЗАСЧИТЫВАЕТСЯ! Золото
Дата: Зарегистрирован   [ Тип: внутренний ] Как тут cкачать?
MAGNET ссылка
MAGNET ссылка


Скачать .torrent

15 KB

Статус: проверено DHT
Скачан: торрент - 5379 раз, раздача полностью - 8 раз
Размер: 743 MB
Оценка:  5 (Голосов: 1)
Поблагодарили: 2
Поделиться ссылкой на эту раздачу с друзьями:
В контактеFacebookОдноклассникиTwitterLivejournalМой МирLiveinternet
 

 
Показать сообщения:    


Вы не можете начинать темы
Вы не можете отвечать на сообщения
Вы не можете редактировать свои сообщения
Вы не можете удалять свои сообщения
Вы не можете голосовать в опросах
Вы не можете прикреплять файлы к сообщениям
Вы можете скачивать файлы