Loading...
Error

Скачать Сожженная на костре / Пришествие / Изгнание дьявола / The coming / Burned at the stake (Берт Гордон) [1981, ужасы, мистика, VHSRip] [AVO] (Антон Алексеев) торрент без регистрации

 
Статистика раздачи
Размер:  1011 MB   |    Скачан:  117 раз
Сидов:  1  [  0 KB/s  ]  
 
Автор Сообщение

leon030982

[] 

Сожженная на костре / Пришествие / Изгнание дьявола / The coming / Burned at the stake
Страна: США
Жанр: ужасы, мистика
Год выпуска: 1981
Продолжительность: 01:26:00
Перевод: Авторский (одноголосый закадровый) Антон Алексеев
Cубтитры: нет
Режиссер: Берт Гордон / Bert I. Gordon
В ролях: Сьюзэн Свифт, Альберт Сэлми, Гай Стокуэлл, Тиша Стерлинг, Беверли Росс ,Дэвид Раундс, Джон Питерс, Дэна Хардвик, Лоурен Дженнифер Доунинг, Дженин Бэйбо

Описание: В 1692 году в городе Салем шла жестокая расправа с «ведьмами». Отец Пэррис, пользуясь ложными свидетельствами двенадцатилетней девочки Энн Патнем, приговорил к казни около 20 человек. Печальная судьба лжеобвинения постигла и семейство Гуд. Жена и пятилетняя дочь Уильяма Гуда были казнены и всё после выдуманных Энн Патнем мучений.
Наше время. Автобус со школьниками направляется с экскурсией по знаменательным местам города Салем. В автобусе находится девочка Лорин Грэхем, как две капли воды похожая на Энн Патнем. Вскоре начинаются разные странности, которые усугубляются тем, что в городском музее ведьм через временную дыру в наше время проник Уильям Гуд.
Его целью является убедить Лорин, что она способна изменить ход истории и пользуясь тем, что она является воплощением Энн Патнем предотвратить сожжение его малолетней дочки. Но вместе с ним в наше время проникли призраки Энн Патнем и преподобного Отца Пэрриса, которые стараются всячески воспрепятствовать изменению произошедших событий…



Качество видео: VHSRip
Формат видео: AVI
Видео: 640x480 (1.33:1), 25 fps, XviD build 50 ~1505 kbps avg, 0.20 bit/pixel
Аудио: 32 kHz, MPEG Layer 3, 2 ch, ~128.00 kbps avg
Полное имя : The.Coming.1981.avi
Формат : AVI
Формат/Информация : Audio Video Interleave
Размер файла : 1011 Мбайт
Продолжительность : 1 ч. 26 м.
Общий поток : 1643 Кбит/сек
Программа кодирования : VirtualDubMod 1.5.10.3 (build 2550/release)
Библиотека кодирования : VirtualDubMod build 2550/release
Видео
Идентификатор : 0
Формат : MPEG-4 Visual
Профиль формата : Advanced Simple@L5
Параметр BVOP формата : 1
Параметр QPel формата : Нет
Параметр GMC формата : Без точки перехода
Параметр матрицы формата : Default (H.263)
Идентификатор кодека : XVID
Идентификатор кодека/Подсказка : XviD
Продолжительность : 1 ч. 26 м.
Битрейт : 1506 Кбит/сек
Ширина : 640 пикселей
Высота : 480 пикселей
Соотношение сторон : 4:3
Частота кадров : 25,000 кадров/сек
Цветовое пространство : YUV
Субдискретизация насыщенности : 4:2:0
Битовая глубина : 8 бит
Тип развёртки : Прогрессивная
Метод сжатия : С потерями
Бит/(Пиксели*Кадры) : 0.196
Размер потока : 926 Мбайт (92%)
Библиотека кодирования : XviD 1.2.1 (UTC 2008-12-04)
Аудио
Идентификатор : 1
Формат : MPEG Audio
Версия формата : Version 1
Профиль формата : Layer 3
Идентификатор кодека : 55
Идентификатор кодека/Подсказка : MP3
Продолжительность : 1 ч. 26 м.
Вид битрейта : Постоянный
Битрейт : 128 Кбит/сек
Каналы : 2 канала
Частота : 32,0 КГц
Метод сжатия : С потерями
Задержка видео : 1 с. 476 мс.
Размер потока : 78,7 Мбайт (8%)
Выравнивание : Разделение по промежуткам
Продолжительность промежутка : 40 мс. (1,00 видеокадр)
Время предзагрузки промежутка : 504 мс.
Библиотека кодирования : LAME3.98r
Настройки программы : -m s -V 4 -q 2 -lowpass 16 -b 128



Скачать Сожженная.на.костре.Пришествие.Изгнание.дьявола.The.coming.Burned.at.the.stake.(Берт.Гордон).[1981.ужасы.мистика.VHSRip].[AVO].(Антон.Алексеев).torrent без регистрации
Золото ЗОЛОТАЯ РАЗДАЧА! СКАЧАННОЕ НЕ ЗАСЧИТЫВАЕТСЯ! Золото
Дата: Зарегистрирован   [ Тип: внутренний ] Как тут cкачать?
MAGNET ссылка
MAGNET ссылка


Скачать .torrent

20 KB

Статус: проверено DHT
Скачан: торрент - 117 раз, раздача полностью - 66 раз
Размер: 1011 MB
Оценка:  - (Голосов: 0)
Поблагодарили: 1
Поделиться ссылкой на эту раздачу с друзьями:
В контактеFacebookОдноклассникиTwitterLivejournalМой МирLiveinternet
 

 
Показать сообщения:    


Вы не можете начинать темы
Вы не можете отвечать на сообщения
Вы не можете редактировать свои сообщения
Вы не можете удалять свои сообщения
Вы не можете голосовать в опросах
Вы не можете прикреплять файлы к сообщениям
Вы можете скачивать файлы