Loading...
Error

Скачать Форрест Гамп / Forrest Gump (Роберт Земекис) [1994 г., драма, мелодрама, комедия, BDRip-AVC] [MVO] торрент без регистрации

 
Статистика раздачи
Размер:  2,19 GB   |    Скачан:  226 раз
Сидов:  1  [  0 KB/s  ]  
 
Автор Сообщение

Dinozavr

[] 

Форрест Гамп / Forrest Gump
«Мир уже никогда не будет прежним, после того как вы увидите его глазами Форреста Гампа»

Год выпуска: 1994
Страна: США
Жанр: драма, мелодрама, комедия
Продолжительность: 02:21:53
Перевод: Профессиональный (многоголосый, закадровый) ["Премьер видеофильм"]

Режиссер: Роберт Земекис

В ролях: Том Хэнкс, Робин Райт, Гэри Синиз, Майкелти Уильямсон, Салли Филд, Ребекка Уильямс, Майкл Коннер Хэмпфри, Харольд Дж. Хертэм, Джордж Келли, Боб Пенни

Описание: От лица главного героя Форреста Гампа, слабоумного безобидного человека с благородным и открытым сердцем, рассказывается история его необыкновенной жизни.

Фантастическим образом превращается он в известного футболиста, героя войны, преуспевающего бизнесмена. Он становится миллиардером, но остается таким же бесхитростным, глупым и добрым. Форреста ждет постоянный успех во всем, а он любит девочку, с которой дружил в детстве, но взаимность приходит слишком поздно.

Качество:
BDRip-AVC
Формат: MKV
Видео кодек: H.264
Аудио кодек: AC3
Видео: 1921 kbps,
1024x432 (2.40:1), 23.976 fps, 0.190 bpp
Аудио: AC-3, 192 kbps, 2 ch, 48.0 kHz


Код:

Общее
Уникальный идентификатор                 : 227969438344503116394617516215984175127 (0xAB815117EC37C359834D7575202FB817)
Полное имя                               : Форрест Гамп.mkv
Формат                                   : Matroska
Версия формата                           : Version 2
Размер файла                             : 2,19 Гбайт
Продолжительность                        : 2 ч. 21 м.
Общий поток                              : 2210 Кбит/сек
Дата кодирования                         : UTC 2009-08-29 16:27:23
Программа кодирования                    : mkvmerge v2.9.7 ('Tenderness') built on Jul  1 2009 18:43:35
Библиотека кодирования                   : libebml v0.7.7 + libmatroska v0.8.1

Видео
Идентификатор                            : 1
Формат                                   : AVC
Формат/Информация                        : Advanced Video Codec
Профиль формата                          : High@L5.1
Параметр CABAC формата                   : Да
Параметр ReFrames формата                : 2 кадра
Идентификатор кодека                     : V_MPEG4/ISO/AVC
Продолжительность                        : 2 ч. 21 м.
Битрейт                                  : 2016 Кбит/сек
Ширина                                   : 1024 пикселя
Высота                                   : 432 пикселя
Соотношение сторон                       : 2,40:1
Частота кадров                           : 23,976 кадра/сек
Цветовое пространство                    : YUV
Субдискретизация насыщенности            : 4:2:0
Битовая глубина                          : 8 бит
Тип развёртки                            : Прогрессивная
Бит/(Пиксели*Кадры)                      : 0.190
Размер потока                            : 1,96 Гбайт (89%)
Библиотека кодирования                   : x264 core 67 r1173 f6d3166
Настройки программы                      : cabac=1 / ref=1 / deblock=1:0:0 / analyse=0x3:0x133 / me=hex / subme=7 / psy_rd=1.0:0.0 / mixed_ref=0 / me_range=16 / chroma_me=1 / trellis=1 / 8x8dct=1 / cqm=0 / deadzone=21,11 / chroma_qp_offset=-2 / threads=6 / nr=0 / decimate=1 / mbaff=0 / bframes=10 / b_pyramid=0 / b_adapt=1 / b_bias=0 / direct=3 / wpredb=1 / keyint=250 / keyint_min=25 / scenecut=40 / rc=2pass / bitrate=2016 / ratetol=1.0 / qcomp=0.60 / qpmin=10 / qpmax=51 / qpstep=4 / cplxblur=20.0 / qblur=0.5 / ip_ratio=1.40 / pb_ratio=1.30 / aq=1:1.00
Default                                  : Да
Forced                                   : Нет

Аудио
Идентификатор                            : 2
Формат                                   : AC-3
Формат/Информация                        : Audio Coding 3
Расширение режима                        : CM (complete main)
Параметр Endianness формата              : Big
Идентификатор кодека                     : A_AC3
Продолжительность                        : 2 ч. 21 м.
Вид битрейта                             : Постоянный
Битрейт                                  : 192 Кбит/сек
Каналы                                   : 2 канала
Расположение каналов                     : Front: L R
Частота                                  : 48,0 КГц
Битовая глубина                          : 16 бит
Метод сжатия                             : С потерями
Размер потока                            : 195 Мбайт (9%)
Default                                  : Да
Forced                                   : Нет


  • В ходе съемок одной из сцен Том Хэнкс говорит: «Мое имя — Форрест Гамп. Люди зовут меня Форрест Гамп». На самом деле актер совершил оговорку, но режиссеру Роберту Земекису она пришлась по вкусу, и он включил именно этот дубль в итоговую версию картины.
  • Роль Форреста прочили Биллу Мюррею.
  • Режиссерское кресло могло достаться Барри Зонненфельду и Терри Гиллиаму.
  • Во время съемок футбольных сцен Том Хэнкс был болен гриппом, однако стойко выдержал испытания и отработал в эти дни через «не могу».
  • Том Хэнкс согласился принять участие в съемках с одним условием: все события картины должны перекликаться с реальными историческими событиями.
  • В эпизодических ролях были задействованы Александр Земекис (сын режиссера) и Элизабет Хэнкс (дочь актера).
  • После того, как Дженни (Робин Райт) умирает, Форест приходит посетить ее могилу. Он говорит: «Ты умерла в субботу». Однако надпись на могильном камне противоречит данной фразе. Там указана дата смерти — 22 марта 1982 года (понедельник).
  • Имя персонажа Forrest Gump созвучно словосочетанию «forest gamp» — что в переводе с английского означает «лесной зонтик». Сами слова, однако, переводятся как «лесной житель» и «придурок».
  • Фильм достаточно далеко ушёл от исходного романа Уинстона Грума, в котором Форрест Гамп показан резким несносным циником. А цитата из фильма «Жизнь это как коробка конфет» полностью противоположна мысли из романа «Быть идиотом это не коробка конфет».
    Кинокомпания «Warner Bros.» отказалась от прав на этот фильм в 1988 году, посчитав, что реализация этого проекта будет коммерчески невыгодна после выхода фильма «Человек дождя».
  • «Оторванные» ноги Гари Синиза при съёмке были обёрнуты специальным синим полотном, что позволило их потом «стереть» из кадра посредством компьютерных спецэффектов. Тем не менее в некоторых эпизодах заметно как лейтенант Ден слегка опирается на отсутствующие конечности.
  • Оригинальный акцент Форреста Гампа Том Хэнкс подсмотрел у Майкла Коннера Хамфриса, игравшего молодого Гампа и действительно в жизни говорившего с таким акцентом.
  • Почти все реплики давно умершего Джона Леннона для этого фильма были взяты из его песни «Imagine».
  • Сцена, в которой Форрест Гамп получает Медаль Почёта, была смонтирована из архивной плёнки награждения рядового 1-го класса Сэмми Л.
  • Дэвиса (19 ноября 1968 года), который имел ранения спины и ягодиц в результате «дружественного огня».
  • При каждой «смене возраста» Форреста одна вещь остаётся неизменной — в первой сцене в «новом» возрасте Форрест появляется в синей рубашке.
  • Фамилия Дженни — Каррен — фигурирует только один раз в фильме: на конверте, посланном Форресту во Вьетнам.
  • Салли Филд, игравшая маму Форреста, всего на 10 лет старше Тома Хэнкса.
  • Салли Филд ранее уже снималась вместе с Томом Хэнксом - это произошло на съемочной площадке картины «Изюминка» 1988г. В этом фильме герой Хэнкса ухаживает и даже делает предложение героине Салли.

Оскар, 1995 год

Победитель:

  • Лучший фильм
  • Лучшая мужская роль (Том Хэнкс)
  • Лучший режиссер (Роберт Земекис)
  • Лучший адаптированный сценарий
  • Лучший монтаж
  • Лучшие визуальные эффекты

Номинации:

  • Лучшая мужская роль второго плана (Гэри Синиз)
  • Лучшая работа оператора
  • Лучшие декорации
  • Лучший звук
  • Лучший монтаж звука
  • Лучший грим
  • Лучший оригинальный саундтрек

Золотой глобус, 1995 год

Победитель:

  • Лучший фильм (драма)
  • Лучшая мужская роль (драма) (Том Хэнкс)
  • Лучший режиссер (Роберт Земекис)

Номинации:

  • Лучшая мужская роль второго плана (Гэри Синиз)
  • Лучшая женская роль второго плана (Робин Райт)
  • Лучший сценарий
  • Лучший саундтрек

Премия канала «MTV», 1995 год

Номинации:

  • Прорыв года (Майкелти Уильямсон)
  • Лучший фильм
  • Лучшая мужская роль (Том Хэнкс)

Британская академия, 1995 год

Победитель:

  • Лучшие визуальные эффекты

Номинации:

  • Лучший фильм
  • Лучшая мужская роль (Том Хэнкс)
  • Лучшая женская роль второго плана (Салли Филд)
  • Лучший адаптированный сценарий
  • Лучшая работа оператора
  • Лучший монтаж
  • Премия имени Дэвида Лина за достижения в режиссуре (Роберт Земекис)

Сатурн, 1995 год

Победитель:

  • Лучший актер второго плана (Гэри Синиз)
  • Лучший фэнтези-фильм

Номинации:

  • Лучший актер (Том Хэнкс)
  • Лучшая актриса второго плана (Робин Райт)
  • Лучший режиссер (Роберт Земекис)
  • Лучший сценарий
  • Лучшие спецэффекты
  • Лучшая музыка



Скачать Форрест.Гамп.Forrest.Gump.(Роберт.Земекис).[1994.г.драма.мелодрама.комедия.BDRip-AVC].[MVO].torrent без регистрации
Золото ЗОЛОТАЯ РАЗДАЧА! СКАЧАННОЕ НЕ ЗАСЧИТЫВАЕТСЯ! Золото
Дата: Зарегистрирован   [ Тип: внутренний ] Как тут cкачать?
MAGNET ссылка
MAGNET ссылка


Скачать .torrent

11 KB

Статус: проверено DHT
Скачан: торрент - 226 раз, раздача полностью - 317 раз
Размер: 2,19 GB
Оценка:  5 (Голосов: 1)
Поблагодарили: 8
Поделиться ссылкой на эту раздачу с друзьями:
В контактеFacebookОдноклассникиTwitterLivejournalМой МирLiveinternet
 

 
Показать сообщения:    


Вы не можете начинать темы
Вы не можете отвечать на сообщения
Вы не можете редактировать свои сообщения
Вы не можете удалять свои сообщения
Вы не можете голосовать в опросах
Вы не можете прикреплять файлы к сообщениям
Вы можете скачивать файлы