Loading...
Error

Скачать Аманда / Amanda (Стив Марра) [2009, мелодрама, комедия, DVDRip-AVC] [MVO] [Лицензия] торрент без регистрации

 
Статистика раздачи
Размер:  1,46 GB   |    Скачан:  119 раз
Сидов:  1  [  0 KB/s  ]  
 
Автор Сообщение

МихаНЕзатор

[] 

Аманда / Amanda

«Some guys just never seem to grow up...to be guys»


Год выпуска: 2009
Страна: США
Жанр: мелодрама, комедия
Продолжительность: 01:21:00
Перевод: Профессиональный (многоголосый закадровый)
Режиссер: Стив Марра



В ролях: Ariana Dubynin, Рэнди Райан (Randy Ryan), Мэттью В. Аллен (Matthew W. Allen), Neil S. Bagadiong, Bill Bannister, Тим Баррет (Tim Barrett), Bruce Bennett, Tiffany Benedict Birkson, Тиффани Баллок (Tiffany Bullock), Mariah Daisy-Sharp, Хина Долл (China Doll), Эми Эсакоув (Amy Esacove), Carrie Fedor, David Eric Finnell, Ron Flora, Katherine Glover, Sarah Hailey, Kristy Hancock, Richard Hayes, Жан Джеймисон (Jan Jamison)

Описание: Джо успешный бизнесмен и настоящий бабник. Он наслаждается жизнью и женщинами до тех пор, пока не встречает на своем пути Аманду. Их роман и отношения в конечном итоге грозятся перерасти в свадьбу, к тревоге вечно опекающих его родителей. Случайно Джо узнает некоторые пикантные подробности из прошлой жизни Аманды. В порыве гнева он выгоняет ее из дома, но спустя какое то время понимает, что Аманда лучшее что с ним когда либо было.

Премьера (мир): 4 октября 2009, ...
Релиз на DVD: 12 апреля 2012, «Флагман-Трейд», ...

Качество: DVDRip
Формат: MKV
Видео кодек: AVC
Аудио кодеk: AC3
Видео: 720x400 (16:9), 25.000 fps, AVC, 2 000 Kbps
Аудио: Аудио #1: AC3, 384 Kbps, 48.0 KHz, 6 ch
Аудио #2: AC3, 192 Kbps, 48.0 KHz, 2 ch


General
Complete name : Amanda (2009)DVDRip AVC.mkv
Format : Matroska
File size : 1.46 GiB
Duration : 1h 21mn
Overall bit rate : 2 577 Kbps
Encoded date : UTC 2012-04-19 12:30:06
Writing application : mkvmerge v5.5.0 ('Healer') built on Apr 6 2012 21:43:24
Writing library : libebml v1.2.3 + libmatroska v1.3.0

Video
ID : 1
Format : AVC
Format/Info : Advanced Video Codec
Format profile : High@L4.1
Format settings, CABAC : Yes
Format settings, ReFrames : 4 frames
Muxing mode : Container profile=Unknown@4.1
Codec ID : V_MPEG4/ISO/AVC
Duration : 1h 21mn
Bit rate : 2 000 Kbps
Width : 720 pixels
Height : 400 pixels
Display aspect ratio : 16:9
Frame rate : 25.000 fps
Color space : YUV
Chroma subsampling : 4:2:0
Bit depth : 8 bits
Scan type : Progressive
Bits/(Pixel*Frame) : 0.278
Stream size : 1.10 GiB (76%)
Title : Видео
Writing library : x264 core 122 r2184+663+29 dad6db3 tMod [8-bit@all X86]
Encoding settings : cabac=1 / ref=4 / deblock=1:-3:-2 / analyse=0x3:0x133 / me=umh / subme=10 / psy=1 / fade_compensate=0.00 / psy_rd=1.00:0.15 / mixed_ref=1 / me_range=32 / chroma_me=1 / trellis=2 / 8x8dct=1 / cqm=0 / deadzone=21,11 / fast_pskip=0 / chroma_qp_offset=-3 / threads=3 / sliced_threads=0 / nr=0 / decimate=1 / interlaced=0 / bluray_compat=0 / constrained_intra=0 / fgo=0 / bframes=8 / b_pyramid=2 / b_adapt=2 / b_bias=0 / direct=3 / weightb=1 / open_gop=0 / weightp=2 / keyint=250 / keyint_min=25 / scenecut=40 / intra_refresh=0 / rc_lookahead=50 / rc=2pass / mbtree=1 / bitrate=2000 / ratetol=1.0 / qcomp=0.80 / qpmin=0 / qpmax=51 / qpstep=4 / cplxblur=20.0 / qblur=0.5 / ip_ratio=1.40 / aq=1:1.00
Color primaries : BT.470-6 System B, BT.470-6 System G, BT.601-6 625, BT.1358 625, BT.1700 625 PAL, BT.1700 625 SECAM
Transfer characteristics : BT.470-6 System B, BT.470-6 System G
Matrix coefficients : BT.470-6 System B, BT.470-6 System G, BT.601-6 625, BT.1358 625, BT.1700 625 PAL, BT.1700 625 SECAM, IEC 61966-2-4 601

Audio #1
ID : 2
Format : AC-3
Format/Info : Audio Coding 3
Mode extension : CM (complete main)
Codec ID : A_AC3
Duration : 1h 21mn
Bit rate mode : Constant
Bit rate : 384 Kbps
Channel(s) : 6 channels
Channel positions : Front: L C R, Side: L R, LFE
Sampling rate : 48.0 KHz
Bit depth : 16 bits
Stream size : 222 MiB (15%)
Title : Аудио 1
Language : Russian

Audio #2
ID : 3
Format : AC-3
Format/Info : Audio Coding 3
Mode extension : CM (complete main)
Codec ID : A_AC3
Duration : 1h 21mn
Bit rate mode : Constant
Bit rate : 192 Kbps
Channel(s) : 2 channels
Channel positions : Front: L R
Sampling rate : 48.0 KHz
Bit depth : 16 bits
Stream size : 111 MiB (7%)
Title : Аудио 2
Language : Russian


Релиз группы:



Скачать Аманда.Amanda.(Стив.Марра).[2009.мелодрама.комедия.DVDRip-AVC].[MVO].[Лицензия].torrent без регистрации
Золото ЗОЛОТАЯ РАЗДАЧА! СКАЧАННОЕ НЕ ЗАСЧИТЫВАЕТСЯ! Золото
Дата: Зарегистрирован   [ Тип: внутренний ] Как тут cкачать?
MAGNET ссылка
MAGNET ссылка


Скачать .torrent

15 KB

Статус: проверено DHT
Скачан: торрент - 119 раз, раздача полностью - 9 раз
Размер: 1,46 GB
Оценка:  - (Голосов: 0)
Поблагодарили: 0
Поделиться ссылкой на эту раздачу с друзьями:
В контактеFacebookОдноклассникиTwitterLivejournalМой МирLiveinternet
 

 
Показать сообщения:    


Вы не можете начинать темы
Вы не можете отвечать на сообщения
Вы не можете редактировать свои сообщения
Вы не можете удалять свои сообщения
Вы не можете голосовать в опросах
Вы не можете прикреплять файлы к сообщениям
Вы можете скачивать файлы