Loading...
Error

Скачать Ты будешь по мне скучать / Je vais te manquer (Аманда Стерс) [2009, романтическая комедия, мелодрама, DVDRip] [Sub Rus] + [Original Fre] торрент без регистрации

 
Статистика раздачи
Размер:  700 MB   |    Скачан:  127 раз
Сидов:  1  [  0 KB/s  ]  
 
Автор Сообщение

leon030982

[] 

Ты будешь по мне скучать / Je vais te manquer
Страна: Франция
Жанр: романтическая комедия, мелодрама
Год выпуска: 2009
Продолжительность: 01:31:18
Перевод: Субтитры
Cубтитры: русские
Оригинальная аудиодорожка: французский
Режиссер: Аманда Стерс / Amanda Sthers

В ролях: Кароль Буке / Carole Bouquet, Пьер Ардити / Pierre Arditi, Мишель Лонсдаль / Michael Lonsdale, Анн Маревен / Anne Marivin, Патрик Милль / Patrick Mille, Фред Тесто / Fred Testot, Моник Шометт / Monique Chaumette, Мелани Паж / Melanie Page

Описание: В парижском аэропорту пересекаются судьбы десяти человек. Еще недавно они и не догадывались, что это самые важные моменты в их жизнях...

Релиз
КАК ВСЕГДА БОЛЬШОЕ СПАСИБО:
Рип неизвестного автора
Перевод Е.Маньен
Субтитры Animat, grafd

Качество видео: DVDRip
Формат видео: AVI
Видео: 576x304 (1.89:1), 25 fps, XviD MPEG-4 ~927 kbps avg, 0.21 bit/pixel
Аудио: 48 kHz, MPEG Layer 3, 2 ch, ~131.27 kbps avg
Формат субтитров: softsub (SRT)
438
00:37:37,238 --> 00:37:39,081
Я так вас люблю...
439
00:37:39,278 --> 00:37:41,042
Ладно, мам, не перебарщивай.
440
00:37:42,998 --> 00:37:44,124
Поцелуй эскимоса.
441
00:37:49,598 --> 00:37:50,884
Ну иди.
442
00:37:51,038 --> 00:37:52,563
А то опоздаешь.
443
00:37:55,238 --> 00:37:57,400
Береги себя.
444
00:38:01,358 --> 00:38:02,939
Иди-иди!
445
00:38:09,398 --> 00:38:12,129
В Руасси, в трюме самолета,
прибывшего
446
00:38:12,278 --> 00:38:15,760
из Дакара, были обнаружены
нелегальные иммигранты.
447
00:38:15,918 --> 00:38:18,285
Перелет прошел
General
Complete name : D:\Раздачи\Je.Vais.Te.Manquer.2009.FR.grafd.fenixclub.com.avi
Format : AVI
Format/Info : Audio Video Interleave
File size : 700 MiB
Duration : 1h 31mn
Overall bit rate : 1 072 Kbps
Writing application : Nandub v1.0rc2
Writing library : Nandub build 1852/release
Video
ID : 0
Format : MPEG-4 Visual
Format profile : Advanced Simple@L5
Format settings, BVOP : 2
Format settings, QPel : No
Format settings, GMC : No warppoints
Format settings, Matrix : Default (H.263)
Muxing mode : Packed bitstream
Codec ID : XVID
Codec ID/Hint : XviD
Duration : 1h 31mn
Bit rate : 928 Kbps
Width : 576 pixels
Height : 304 pixels
Display aspect ratio : 1.895
Frame rate : 25.000 fps
Color space : YUV
Chroma subsampling : 4:2:0
Bit depth : 8 bits
Scan type : Progressive
Compression mode : Lossy
Bits/(Pixel*Frame) : 0.212
Stream size : 606 MiB (87%)
Writing library : XviD 1.2.1 (UTC 2008-12-04)
Audio
ID : 1
Format : MPEG Audio
Format version : Version 1
Format profile : Layer 3
Mode : Joint stereo
Codec ID : 55
Codec ID/Hint : MP3
Duration : 1h 31mn
Bit rate mode : Variable
Bit rate : 131 Kbps
Channel(s) : 2 channels
Sampling rate : 48.0 KHz
Compression mode : Lossy
Stream size : 85.7 MiB (12%)
Alignment : Aligned on interleaves
Interleave, duration : 24 ms (0.60 video frame)
Interleave, preload duration : 444 ms



Скачать Ты.будешь.по.мне.скучать.Je.vais.te.manquer.(Аманда.Стерс).[2009.романтическая.комедия.мелодрама.DVDRip].[Sub.Rus].+.[Original.Fre].torrent без регистрации
Золото ЗОЛОТАЯ РАЗДАЧА! СКАЧАННОЕ НЕ ЗАСЧИТЫВАЕТСЯ! Золото
Дата: Зарегистрирован   [ Тип: внутренний ] Как тут cкачать?
MAGNET ссылка
MAGNET ссылка


Скачать .torrent

14 KB

Статус: проверено DHT
Скачан: торрент - 127 раз, раздача полностью - 54 раз
Размер: 700 MB
Оценка:  - (Голосов: 0)
Поблагодарили: 0
Поделиться ссылкой на эту раздачу с друзьями:
В контактеFacebookОдноклассникиTwitterLivejournalМой МирLiveinternet
 

 
Показать сообщения:    


Вы не можете начинать темы
Вы не можете отвечать на сообщения
Вы не можете редактировать свои сообщения
Вы не можете удалять свои сообщения
Вы не можете голосовать в опросах
Вы не можете прикреплять файлы к сообщениям
Вы можете скачивать файлы