Loading...
Error

Скачать Шатл / Shuttle (Эдвард Андерсон) [2008 г., Триллер, Драма, Криминал, DVDRip] [MVO] + [ENG] торрент без регистрации

 
Статистика раздачи
Размер:  2,05 GB   |    Скачан:  112 раз
Сидов:  1  [  0 KB/s  ]  
 
Автор Сообщение

leon030982

[] 

Шатл / Shuttle

«Never ride with a stranger.»

Год выпуска: 2008
Страна: США

Жанр: Триллер, Драма, Криминал

Продолжительность: 01:42:28
Перевод: Профессиональный (многоголосый закадровый) R5 + Оригинальная английская дорожка
Субтитры: нет
Режиссер:
Эдвард Андерсон / Edward AndersonВ ролях:Тони Карран, Пейтон Лист, Камерон Гудман, Каллен Дуглас, Дэйв Пауэр, Джеймс Снайдер, Том Кемп, Джен Элисон Льюис, Джеймс Райен
Описание: Мэл и Джулз возвращаются из Мексики, проведя там отличный отдых. Уже далеко за полночь, и они решают поймать маршрутку, чтобы доехать домой. Их попутчиками оказываются нервный бухгалтер и два парня, один из которых пристает к Джулз. Внезапно они оказываются на незнакомых, пустынных улицах — как говорит водитель, чтобы избежать пробок… Но что на самом деле происходит и куда они направляются?…
Качество: DVDRip
Формат: AVI
Видео кодек: XviD
Аудио кодек: AC3
Видео: 720x400 (1.80:1), 25 fps, XviD MPEG-4 ~2381 kbps avg, 0.33 bit/pixel
Аудио: 48 kHz, AC3 Dolby Digital, 3/2 (L,C,R,l,r) + LFE ch, ~224.00 kbps avg
Аудио: 48 kHz, AC3 Dolby Digital, 3/2 (L,C,R,l,r) + LFE ch, ~256.00 kbps avg



General
Complete name : D:\Фильмы\Shatl.DVDRip.2008.MVO.Eng.avi
Format : AVI
Format/Info : Audio Video Interleave
Format profile : OpenDML
File size : 2.05 GiB
Duration : 1h 42mn
Overall bit rate : 2 869 Kbps
Movie name : Шатл / Shuttle (2008) DVDRip от FreeTorrents-UA
Director : FreeTorrents-UA
Writing application : VirtualDubMod 1.5.10.2 (build 2542/release)
Video
ID : 0
Format : MPEG-4 Visual
Format profile : Advanced Simple@L5
Format settings, BVOP : 1
Format settings, QPel : No
Format settings, GMC : No warppoints
Format settings, Matrix : Default (MPEG)
Codec ID : XVID
Codec ID/Hint : XviD
Duration : 1h 42mn
Bit rate : 2 370 Kbps
Width : 720 pixels
Height : 400 pixels
Display aspect ratio : 16:9
Frame rate : 25.000 fps
Color space : YUV
Chroma subsampling : 4:2:0
Bit depth : 8 bits
Scan type : Progressive
Compression mode : Lossy
Bits/(Pixel*Frame) : 0.329
Stream size : 1.70 GiB (83%)
Writing library : XviD 1.2.1 (UTC 2008-12-04)
Audio #1
ID : 1
Format : AC-3
Format/Info : Audio Coding 3
Mode extension : CM (complete main)
Codec ID : 2000
Duration : 1h 42mn
Bit rate mode : Constant
Bit rate : 224 Kbps
Channel(s) : 6 channels
Channel positions : Front: L C R, Side: L R, LFE
Sampling rate : 48.0 KHz
Bit depth : 16 bits
Compression mode : Lossy
Stream size : 164 MiB (8%)
Alignment : Split accross interleaves
Interleave, duration : 40 ms (1.00 video frame)
Interleave, preload duration : 500 ms
Audio #2
ID : 2
Format : AC-3
Format/Info : Audio Coding 3
Mode extension : CM (complete main)
Codec ID : 2000
Duration : 1h 42mn
Bit rate mode : Constant
Bit rate : 256 Kbps
Channel(s) : 6 channels
Channel positions : Front: L C R, Side: L R, LFE
Sampling rate : 48.0 KHz
Bit depth : 16 bits
Compression mode : Lossy
Stream size : 188 MiB (9%)
Alignment : Split accross interleaves
Interleave, duration : 40 ms (1.00 video frame)
Interleave, preload duration : 500 ms



Скачать Шатл.Shuttle.(Эдвард.Андерсон).[2008.г.Триллер.Драма.Криминал.DVDRip].[MVO].+.[ENG].torrent без регистрации
Золото ЗОЛОТАЯ РАЗДАЧА! СКАЧАННОЕ НЕ ЗАСЧИТЫВАЕТСЯ! Золото
Дата: Зарегистрирован   [ Тип: внутренний ] Как тут cкачать?
MAGNET ссылка
MAGNET ссылка


Скачать .torrent

11 KB

Статус: проверено DHT
Скачан: торрент - 112 раз, раздача полностью - 8 раз
Размер: 2,05 GB
Оценка:  - (Голосов: 0)
Поблагодарили: 1
Поделиться ссылкой на эту раздачу с друзьями:
В контактеFacebookОдноклассникиTwitterLivejournalМой МирLiveinternet
 

 
Показать сообщения:    


Вы не можете начинать темы
Вы не можете отвечать на сообщения
Вы не можете редактировать свои сообщения
Вы не можете удалять свои сообщения
Вы не можете голосовать в опросах
Вы не можете прикреплять файлы к сообщениям
Вы можете скачивать файлы