Loading...
Error

Скачать Дорога домой: Невероятное путешествие / Homeward Bound: The Incredible Journey (Дуэйн Данэм) [1992, драма, комедия, приключения, семейный, DVDRip-AVC] [MVO] + [AVO] (Горчаков) + [Subs] (Rus, Eng) торрент без регистрации

 
Статистика раздачи
Размер:  1,68 GB   |    Скачан:  182 раза
Сидов:  1  [  0 KB/s  ]  
 
Автор Сообщение

leon030982

[] 


Дорога домой: Невероятное путешествие
Homeward Bound: The Incredible Journey

Страна: США
Жанр: драма, комедия, приключения, семейный
Год выпуска: 1992
Продолжительность: 01:24:39
Перевод 1: Профессиональный (многоголосый закадровый)
Cубтитры: русские, английские
+ отдельно:
Перевод 2: Авторский (одноголосый закадровый) - Горчаков
Оригинальная аудиодорожка: английский
Режиссер: Дуэйн Данэм / Duwayne Dunham
В ролях: Дон Алдер, Эд Бернард, Кевин Чевалия, Энн Кристиансон, Тед Д’Арм, Вуди Еней, Ким Грайст, Рич Хоукинс, Роберт Хэйс

Описание:
Взбалмошный бульдог Шанс, мудрый пёс Шэдоу и гималайская красавица – кошка Сэсси, живут в семье, которая в них души не чает. Но главе семьи, Бобу, нужно срочно ехать в Сан Франциско по работе и он берёт жену и детей с собой, а четвероногих друзей оставляет на ферме у знакомой. Животные очень обеспокоились этой неожиданной разлукой и решают во что бы то ни стало вернуться домой, проделав огромный путь через леса и горы, где их на каждом шагу подстерегают опасности. Дружба, преданность и юмор помогут им преодолеть этот сложный путь.

IMDb: 6.60 (15 254)
Семпл: 15,8мб
Качество:DVDRip-AVC {by big1987}
Формат видео: MKV
Видео: кодек: h.264, размер кадра: 716x480 @ 716x540, fps: 23,976, битрейт: 2271 Kbps, Bits/(Pixel*Frame): 0.276
Аудио 1: аудиокодек: AC3 2.0, 48 KHz, битрейт аудио: 192 кб/с - MVO
Формат субтитров: softsub (SRT)
Размер рипа: 1,45Gb
+ отдельно:
Аудио 2: аудиокодек: AC3 2.0, 48 KHz, битрейт аудио: 192 кб/с - AVO, Горчаков
Аудио 3: аудиокодек: AC3 2.0, 48 KHz, битрейт аудио: 192 кб/с - Eng
frame I:1134 Avg QP:17.56 size: 77659
frame P:25006 Avg QP:20.43 size: 27491
frame B:95641 Avg QP:23.48 size: 6963
Format : Matroska
Format version : Version 2
File size : 1.46 GiB
Duration : 1h 24mn
Overall bit rate : 2 464 Kbps
Movie name : Дорога домой: Невероятное путешествие [1992, DVDRip/AVC] || big1987
Encoded date : UTC 2012-04-19 08:48:16
Writing application : mkvmerge v5.0.1 ('Es ist Sommer') built on Nov 6 2011 16:23:40
Writing library : libebml v1.2.2 + libmatroska v1.3.0
Video
ID : 1
Format : AVC
Format/Info : Advanced Video Codec
Format profile : High@L3.1
Format settings, CABAC : Yes
Format settings, ReFrames : 9 frames
Codec ID : V_MPEG4/ISO/AVC
Duration : 1h 24mn
Bit rate : 2 271 Kbps
Width : 716 pixels
Height : 480 pixels
Display aspect ratio : 4:3
Frame rate : 23.976 fps
Color space : YUV
Chroma subsampling : 4:2:0
Bit depth : 8 bits
Scan type : Progressive
Bits/(Pixel*Frame) : 0.276
Stream size : 1.31 GiB (90%)
Title : Дорога домой: Невероятное путешествие [1992, DVDRip/AVC] || big1987
Writing library : x264 core 122 r2184 5c85e0a
Encoding settings : cabac=1 / ref=9 / deblock=1:-3:-3 / analyse=0x3:0x133 / me=umh / subme=9 / psy=1 / psy_rd=1.00:0.20 / mixed_ref=1 / me_range=48 / chroma_me=1 / trellis=2 / 8x8dct=1 / cqm=0 / deadzone=21,11 / fast_pskip=0 / chroma_qp_offset=-3 / threads=6 / sliced_threads=0 / nr=0 / decimate=0 / interlaced=0 / bluray_compat=0 / constrained_intra=0 / bframes=10 / b_pyramid=2 / b_adapt=2 / b_bias=0 / direct=3 / weightb=1 / open_gop=0 / weightp=2 / keyint=240 / keyint_min=23 / scenecut=40 / intra_refresh=0 / rc_lookahead=60 / rc=2pass / mbtree=1 / bitrate=2271 / ratetol=1.0 / qcomp=0.60 / qpmin=0 / qpmax=69 / qpstep=4 / cplxblur=20.0 / qblur=0.5 / ip_ratio=1.40 / aq=1:1.00
Language : English
Default : Yes
Forced : No
Audio
ID : 2
Format : AC-3
Format/Info : Audio Coding 3
Mode extension : CM (complete main)
Codec ID : A_AC3
Duration : 1h 24mn
Bit rate mode : Constant
Bit rate : 192 Kbps
Channel(s) : 2 channels
Channel positions : Front: L R
Sampling rate : 48.0 KHz
Bit depth : 16 bits
Compression mode : Lossy
Stream size : 116 MiB (8%)
Title : MVO [AC3 2.0@192kbps]
Language : Russian
Default : Yes
Forced : No
Text #1
ID : 3
Format : UTF-8
Codec ID : S_TEXT/UTF8
Codec ID/Info : UTF-8 Plain Text
Title : Full
Language : Russian
Default : No
Forced : No
Text #2
ID : 4
Format : UTF-8
Codec ID : S_TEXT/UTF8
Codec ID/Info : UTF-8 Plain Text
Title : Full
Language : English
Default : No
Forced : No
Горчаков, Английский:
Audio
Format : AC-3
Format/Info : Audio Coding 3
Format profile : Dolby Digital
Mode extension : CM (complete main)
Duration : 1h 24mn
Bit rate mode : Constant
Bit rate : 192 Kbps
Channel(s) : 2 channels
Channel positions : Front: L R
Sampling rate : 48.0 KHz
Bit depth : 16 bits
Compression mode : Lossy
Stream size : 116 MiB



Скачать Дорога.домой.Невероятное.путешествие.Homeward.Bound.The.Incredible.Journey.(Дуэйн.Данэм).[1992.драма.комедия.приключения.семейный.DVDRip-AVC].[MVO].+.[AVO].(Горчаков).+.[Subs].(Rus.Eng).torrent без регистрации
Золото ЗОЛОТАЯ РАЗДАЧА! СКАЧАННОЕ НЕ ЗАСЧИТЫВАЕТСЯ! Золото
Дата: Зарегистрирован   [ Тип: внутренний ] Как тут cкачать?
MAGNET ссылка
MAGNET ссылка


Скачать .torrent

18 KB

Статус: проверено DHT
Скачан: торрент - 182 раз, раздача полностью - 82 раз
Размер: 1,68 GB
Оценка:  5 (Голосов: 1)
Поблагодарили: 3
Поделиться ссылкой на эту раздачу с друзьями:
В контактеFacebookОдноклассникиTwitterLivejournalМой МирLiveinternet
 

 
Показать сообщения:    


Вы не можете начинать темы
Вы не можете отвечать на сообщения
Вы не можете редактировать свои сообщения
Вы не можете удалять свои сообщения
Вы не можете голосовать в опросах
Вы не можете прикреплять файлы к сообщениям
Вы можете скачивать файлы