Loading...
Error

Скачать Дон Жуан де Марко / Don Juan DeMarco (Джереми Левин / Jeremy Leven) [1994, США, драма, мелодрама, комедия, HDRip] AVOx2 (Сербин, Гаврилов) торрент без регистрации

 
Статистика раздачи
Размер:  1,46 GB   |    Скачан:  120 раз
Сидов:  1  [  0 KB/s  ]  
 
Автор Сообщение

leon030982

[] 

Дон Жуан де Марко / Don Juan DeMarco


Страна: США
Жанр: драма, мелодрама, комедия
Год выпуска: 1994
Продолжительность: 01:37:11
Перевод: Авторский (одногоголосый закадровый)
Cубтитры: нет
Режиссер: Джереми Левин / Jeremy Leven
В ролях: Марлон Брандо, Джонни Депп, Фэй Данауэй, Жеральдин Пайя, Боб Диши, Рейчел Тикотин, Талиса Сото, Марита Герати, Ричард С. Сарафьян, Тереза Хьюз


Описание: Романтическая мелодрама о взаимоотношениях стареющего врача-психиатра и его молодого пациента, который искренне считает себя Дон Жуаном. Дружба, возникшая между героями фильма помогает вернуть врачу утраченную молодость духа, свежесть чувств и способность мечтать.
Помешательство его подопечного окажется не чем иным, как исключительным отношением к женщинам, удивительной способностью молодого человека доставить каждой своей избраннице несравнимое ни с чем удовольствие любви…[/color]
Качество видео:HDRip [BDRip 720p]
Формат видео: AVI
Видео: 720x400 (1.80:1), 23.976 fps, XviD build 50 ~1501 kbps avg, 0.22 bit/pixel
Audio #1: 48 kHz, AC3 Dolby Digital, 3/2 (L,C,R,l,r) + LFE ch, ~448 kbps - AVO (Ю.Сербин)
Audio #2: 48 kHz, AC3 Dolby Digital, 2/0 (L,R) ch, ~192 kbps - AVO (А.Гаврилов)

Код:

Общее
Полное имя                       : E:\ФИЛЬМЫ\Don.Juan.DeMarco.1995.HDRip.andre90.avi
Формат                           : AVI
Формат/Информация                : Audio Video Interleave
Размер файла                     : 1,46 Гбайт
Продолжительность                : 1 ч. 37 м.
Общий поток                      : 2157 Кбит/сек
Программа кодирования            : VirtualDubMod 1.5.10.2 (build 2540/release)
Библиотека кодирования           : VirtualDubMod build 2540/release
Видео
Идентификатор                    : 0
Формат                           : MPEG-4 Visual
Профиль формата                  : Advanced Simple@L5
Параметр BVOP формата            : 1
Параметр QPel формата            : Нет
Параметр GMC формата             : Без точки перехода
Параметр матрицы формата         : Выборочная
Идентификатор кодека             : XVID
Идентификатор кодека/Подсказка   : XviD
Продолжительность                : 1 ч. 37 м.
Битрейт                          : 1503 Кбит/сек
Ширина                           : 720 пикселей
Высота                           : 400 пикселей
Соотношение сторон               : 16:9
Частота кадров                   : 23,976 кадра/сек
Цветовое пространство            : YUV
Субдискретизация насыщенности    : 4:2:0
Битовая глубина                  : 8 бит
Тип развёртки                    : Прогрессивная
Метод сжатия                     : С потерями
Бит/(Пиксели*Кадры)              : 0.218
Размер потока                    : 1,02 Гбайт (70%)
Библиотека кодирования           : XviD 1.2.1 (UTC 2008-12-04)
Аудио #1
Идентификатор                    : 1
Формат                           : AC-3
Формат/Информация                : Audio Coding 3
Расширение режима                : CM (complete main)
Идентификатор кодека             : 2000
Продолжительность                : 1 ч. 37 м.
Вид битрейта                     : Постоянный
Битрейт                          : 448 Кбит/сек
Каналы                           : 6 каналов
Расположение каналов             : Front: L C R, Side: L R, LFE
Частота                          : 48,0 КГц
Битовая глубина                  : 16 бит
Метод сжатия                     : С потерями
Размер потока                    : 311 Мбайт (21%)
Выравнивание                     : Разделение по промежуткам
Продолжительность промежутка     : 42  мс. (1,00 видеокадр)
Время предзагрузки промежутка    : 500  мс.
Заголовок                        : AVO (Ю.Сербин)
Аудио #2
Идентификатор                    : 2
Формат                           : AC-3
Формат/Информация                : Audio Coding 3
Расширение режима                : CM (complete main)
Идентификатор кодека             : 2000
Продолжительность                : 1 ч. 37 м.
Вид битрейта                     : Постоянный
Битрейт                          : 192 Кбит/сек
Каналы                           : 2 канала
Расположение каналов             : Front: L R
Частота                          : 48,0 КГц
Битовая глубина                  : 16 бит
Метод сжатия                     : С потерями
Размер потока                    : 133 Мбайт (9%)
Выравнивание                     : Разделение по промежуткам
Продолжительность промежутка     : 42  мс. (1,00 видеокадр)
Время предзагрузки промежутка    : 500  мс.
Заголовок                        : AVO (А.Гаврилов)



Скачать Дон.Жуан.де.Марко.Don.Juan.DeMarco.(Джереми.Левин.Jeremy.Leven).[1994.США.драма.мелодрама.комедия.HDRip].AVOx2.(Сербин.Гаврилов).torrent без регистрации
Золото ЗОЛОТАЯ РАЗДАЧА! СКАЧАННОЕ НЕ ЗАСЧИТЫВАЕТСЯ! Золото
Дата: Зарегистрирован   [ Тип: внутренний ] Как тут cкачать?
MAGNET ссылка
MAGNET ссылка


Скачать .torrent

15 KB

Статус: проверено DHT
Скачан: торрент - 120 раз, раздача полностью - 2 раз
Размер: 1,46 GB
Оценка:  - (Голосов: 0)
Поблагодарили: 0
Поделиться ссылкой на эту раздачу с друзьями:
В контактеFacebookОдноклассникиTwitterLivejournalМой МирLiveinternet
 

 
Показать сообщения:    


Вы не можете начинать темы
Вы не можете отвечать на сообщения
Вы не можете редактировать свои сообщения
Вы не можете удалять свои сообщения
Вы не можете голосовать в опросах
Вы не можете прикреплять файлы к сообщениям
Вы можете скачивать файлы