Loading...
Error

Скачать Мятеж в космосе / Космический мятеж / Space Mutiny (Дэвид Уинтерс, Нил Сандстром) [1988, фантастика, боевик, мелодрама, приключения, DVDRip] [AVO] торрент без регистрации

 
Статистика раздачи
Размер:  1,46 GB   |    Скачан:  174 раза
Сидов:  1  [  0 KB/s  ]  
 
Автор Сообщение

leon030982

[] 

Мятеж в космосе / Космический мятеж / Space Mutiny

«There is nowhere to hide from the enemy within!»
Страна: США, ЮАР
Жанр: фантастика, боевик, мелодрама, приключения
Год выпуска: 1988
Продолжительность: 01:27:07
Рейтинг MMPA:
Перевод: Одноголосый закадровый [Андрей Дольский]
Cубтитры: нет
Режиссер: Дэвид Уинтерс / David Winters, Нил Сандстром / Neal Sundstrom
В ролях: Рэб Браун, Джон Филлип Ло, Джеймс Райан, Кэмерон Митчелл, Сисси Кэмерон, Грэхэм Кларк, Билли Секонд, Артур Холл
Описание: Пилот - единственный, кто может остановить мятеж на космическом корабле, который подняли сотрудники безопасности с целью продать экипаж в рабство.

Качество видео: DVDRip [исходник DVD5 R1]
Формат видео: AVI
Видео: Xvid, 628x480, 23.98 fps, 2194 kbps, 0.30 bit/pixel
Аудио: AC3 Dolby Digital, 48 kHz, 192 kbps, 2/0 (L,R) ch
General
Complete name : Space.Mutiny.1988.DVDRip.Xvid.AC3-Zombie.Lee.avi
Format : AVI
Format/Info : Audio Video Interleave
File size : 1.46 GiB
Duration : 1h 27mn
Overall bit rate : 2 395 Kbps
Writing library : VirtualDub build 33790/release
Video
ID : 0
Format : MPEG-4 Visual
Format profile : Advanced Simple@L5
Format settings, BVOP : 1
Format settings, QPel : No
Format settings, GMC : No warppoints
Format settings, Matrix : Default (MPEG)
Codec ID : XVID
Codec ID/Hint : XviD
Duration : 1h 27mn
Bit rate : 2 194 Kbps
Width : 628 pixels
Height : 480 pixels
Display aspect ratio : 4:3
Frame rate : 23.976 fps
Color space : YUV
Chroma subsampling : 4:2:0
Bit depth : 8 bits
Scan type : Progressive
Compression mode : Lossy
Bits/(Pixel*Frame) : 0.304
Stream size : 1.34 GiB (92%)
Writing library : XviD 64
Audio
ID : 1
Format : AC-3
Format/Info : Audio Coding 3
Mode extension : CM (complete main)
Codec ID : 2000
Duration : 1h 27mn
Bit rate mode : Constant
Bit rate : 192 Kbps
Channel(s) : 2 channels
Channel positions : Front: L R
Sampling rate : 48.0 KHz
Bit depth : 16 bits
Compression mode : Lossy
Stream size : 120 MiB (8%)
Alignment : Aligned on interleaves
Interleave, duration : 42 ms (1.00 video frame)
Interleave, preload duration : 512 ms



Скачать Мятеж.в.космосе.Космический.мятеж.Space.Mutiny.(Дэвид.Уинтерс.Нил.Сандстром).[1988.фантастика.боевик.мелодрама.приключения.DVDRip].[AVO].torrent без регистрации
Золото ЗОЛОТАЯ РАЗДАЧА! СКАЧАННОЕ НЕ ЗАСЧИТЫВАЕТСЯ! Золото
Дата: Зарегистрирован   [ Тип: внутренний ] Как тут cкачать?
MAGNET ссылка
MAGNET ссылка


Скачать .torrent

15 KB

Статус: проверено DHT
Скачан: торрент - 174 раз, раздача полностью - 53 раз
Размер: 1,46 GB
Оценка:  - (Голосов: 0)
Поблагодарили: 1
Поделиться ссылкой на эту раздачу с друзьями:
В контактеFacebookОдноклассникиTwitterLivejournalМой МирLiveinternet
 

 

leon030982

[] 

В 1990 году выходил на экраны кинотеатров СССР под названием «Космическая заварушка»...
 
Показать сообщения:    


Вы не можете начинать темы
Вы не можете отвечать на сообщения
Вы не можете редактировать свои сообщения
Вы не можете удалять свои сообщения
Вы не можете голосовать в опросах
Вы не можете прикреплять файлы к сообщениям
Вы можете скачивать файлы