Loading...
Error

Скачать Грабители / Inside Men(Полный 1-ый сезон) (Джеймс Кент) [2012, Драма, криминал, экшн, HDTV] [720p] [Gravi-TV / To4ka.TV] торрент без регистрации

 
Статистика раздачи
Размер:  4,41 GB   |    Скачан:  131 раз
Сидов:  1  [  0 KB/s  ]  
 
Автор Сообщение

leon030982

[] 

Грабители / Inside Men
Год выпуска: 2012
Страна: Великобритания
Жанр: Драма, криминал, экшн
Продолжительность: 00:58:00
Перевод: Любительский двухголосый закадровый
Субтитры: Нет
Режиссёр: Джеймс Кент
В ролях: Стивен Макинтош, Эшли Уолтерс, Уорэн Браун, Кирстен Уэринг, Николя Уолкер,
Лейла МимАк.
Описание: Что делать, если у тебя на работе маленькая должность, дома нет ничего хорошего, в кармане денег едва хватает на оплату счетов? И так каждый месяц, одно и тоже. И вот наступает момент, когда ты понимаешь, что жить так больше нельзя. Надо что-то менять. И как хорошо, что есть еще кто-то, кто думает точно также! Теперь ты не один. Вас двое. И можно что-нибудь придумать, чтобы изменить свою жизнь. Для начала - разбогатеть. Но где взять деньги? А может пойти на ограбление? А почему бы и нет?


Озвучка: Alex White, Irene Black
Перевод: kiberline, heardwonders, Luizot, gentleman, medoll, tabushechka, hoodwink
16lena16, juce163
Сэмпл: http://multi-up.com/645961
Качество: HDTV 720p
Формат: MKV
Видео кодек: h264
Аудио кодек: AC3
Видео: AVC, 1280x720 (16/9), 25.000 fps, 2 760 Kbps (0.120 bit/pixel)
Аудио: AC-3, 48.0 KHz, 2 ch, 192 Kbps (Russian)
Аудио 2: AC-3, 48.0 KHz, 2 ch, 192 Kbps
General
Unique ID : 199046426733890347179672059958437378107 (0x95BEF285FD26C2D6BBE0775C0238783B)
Complete name : I:\ЗАКАЧКИ\Inside.Men.s01.HDTV.720p\Inside.Men.1x01.HDTV.720p.Rus.Eng.[Gravi-TV].mkv
Format : Matroska
File size : 1.31 GiB
Duration : 58mn 34s
Overall bit rate : 3 211 Kbps
Encoded date : UTC 2012-02-09 20:37:23
Writing application : mkvmerge v4.6.0 ('Still Crazy After All These Years') сборка от Apr 1 2011 21:01:49
Writing library : libebml v1.2.0 + libmatroska v1.1.0
Video
ID : 1
Format : AVC
Format/Info : Advanced Video Codec
Format profile : High@L4.1
Format settings, CABAC : Yes
Format settings, ReFrames : 5 frames
Muxing mode : Header stripping
Codec ID : V_MPEG4/ISO/AVC
Duration : 58mn 34s
Bit rate : 2 764 Kbps
Width : 1 280 pixels
Height : 720 pixels
Display aspect ratio : 16:9
Frame rate : 25.000 fps
Color space : YUV
Chroma subsampling : 4:2:0
Bit depth : 8 bits
Scan type : Progressive
Bits/(Pixel*Frame) : 0.120
Stream size : 1.13 GiB (86%)
Writing library : x264 core 120 r2145 748fe16
Encoding settings : cabac=1 / ref=5 / deblock=1:0:0 / analyse=0x3:0x113 / me=umh / subme=8 / psy=1 / psy_rd=1.00:0.00 / mixed_ref=1 / me_range=16 / chroma_me=1 / trellis=1 / 8x8dct=1 / cqm=0 / deadzone=21,11 / fast_pskip=1 / chroma_qp_offset=-2 / threads=18 / sliced_threads=0 / nr=0 / decimate=1 / interlaced=0 / bluray_compat=0 / constrained_intra=0 / bframes=3 / b_pyramid=2 / b_adapt=2 / b_bias=0 / direct=3 / weightb=1 / open_gop=0 / weightp=2 / keyint=250 / keyint_min=25 / scenecut=40 / intra_refresh=0 / rc_lookahead=50 / rc=crf / mbtree=1 / crf=18.0 / qcomp=0.60 / qpmin=0 / qpmax=69 / qpstep=4 / ip_ratio=1.40 / aq=1:1.00
Language : English
Audio #1
ID : 2
Format : AC-3
Format/Info : Audio Coding 3
Mode extension : CM (complete main)
Muxing mode : Header stripping
Codec ID : A_AC3
Duration : 58mn 34s
Bit rate mode : Constant
Bit rate : 192 Kbps
Channel(s) : 2 channels
Channel positions : Front: L R
Sampling rate : 48.0 KHz
Bit depth : 16 bits
Compression mode : Lossy
Stream size : 80.4 MiB (6%)
Audio #2
ID : 3
Format : AC-3
Format/Info : Audio Coding 3
Mode extension : CM (complete main)
Muxing mode : Header stripping
Codec ID : A_AC3
Duration : 58mn 34s
Bit rate mode : Constant
Bit rate : 192 Kbps
Channel(s) : 2 channels
Channel positions : Front: L R
Sampling rate : 48.0 KHz
Bit depth : 16 bits
Compression mode : Lossy
Stream size : 80.4 MiB (6%)
Language : English



Скачать Грабители.Inside.Men(Полный.1-ый.сезон).(Джеймс.Кент).[2012.Драма.криминал.экшн.HDTV].[720p].[Gravi-TV.To4ka.TV].torrent без регистрации
Золото ЗОЛОТАЯ РАЗДАЧА! СКАЧАННОЕ НЕ ЗАСЧИТЫВАЕТСЯ! Золото
Дата: Зарегистрирован   [ Тип: внутренний ] Как тут cкачать?
MAGNET ссылка
MAGNET ссылка


Скачать .torrent

23 KB

Статус: проверено DHT
Скачан: торрент - 131 раз, раздача полностью - 21 раз
Размер: 4,41 GB
Оценка:  5 (Голосов: 1)
Поблагодарили: 3
Поделиться ссылкой на эту раздачу с друзьями:
В контактеFacebookОдноклассникиTwitterLivejournalМой МирLiveinternet
 

 
Показать сообщения:    


Вы не можете начинать темы
Вы не можете отвечать на сообщения
Вы не можете редактировать свои сообщения
Вы не можете удалять свои сообщения
Вы не можете голосовать в опросах
Вы не можете прикреплять файлы к сообщениям
Вы можете скачивать файлы