Loading...
Error

Скачать Грабители / Inside Men (Полный 1-ый сезон) (Джеймс Кент) [2012, Драма, криминал, экшн, DVDRip] [Gravi-TV / To4ka] торрент без регистрации

 
Статистика раздачи
Размер:  2,37 GB   |    Скачан:  154 раза

Полного источника не было: 27 минут

 
Автор Сообщение

leon030982

[] 



Грабители / Inside Men


Год выпуска: 2012
Страна: Великобритания
Жанр: драма, криминал, экшн
Продолжительность: ~ 60 минут
Перевод: Любительский (двухголосый, закадровый) - Gravi-TV / To4ka
Субтитры: Нет
Режиссёр: Джеймс Кент
В ролях: Стивен Макинтош, Эшли Уолтерс, Уорэн Браун, Кирстен Уэринг, Николя Уолкер, Лейла МимАк и др.
Описание: Что делать, если у тебя на работе маленькая должность, дома нет ничего хорошего, в кармане денег едва хватает на оплату счетов? И так каждый месяц, одно и тоже. И вот наступает момент, когда ты понимаешь, что жить так больше нельзя. Надо что-то менять. И как хорошо, что есть еще кто-то, кто думает точно также! Теперь ты не один. Вас двое. И можно что-нибудь придумать, чтобы изменить свою жизнь. Для начала - разбогатеть. Но где взять деньги? А может пойти на ограбление? А почему бы и нет?
Качество: DVDRip
Формат: AVI
Видео кодек: XviD
Аудио кодек: MP3
Видео: 624x352 (16:9), 25.000 fps, ~1200 kbps, ~0.215 bit/pixel
Аудио Rus: 48 kHz, 2 ch, ~128 kbps |Gravi-TV / To4ka|
Аудио Eng: 48 kHz, 2 ch, ~128 kbps |Original|

Озвучка: Alex White, Irene Black
/ Сэмпл / ImDB / Кинопоиск
Перевод осуществлен специально для Gravi-TV на сайте Нотабеноид.
1 серия: kiberline, heardwonders, Luizot, gentleman, medoll, tabushechka, hoodwink, 16lena16, juce163
2 серия: kiberline, Luizot, paralerus
3 серия: gentleman, kiberline, Medofil, Luizot
4 серия: kiberline, Luizot, Maddy_kz
Общее
Полное имя : D:\Inside.Men.s01.DVDRip.Rus.Eng.[Gravi-TV]\Inside.Men.s01e01.DVDRip.Rus.Eng.[Gravi-TV].avi
Формат : AVI
Формат/Информация : Audio Video Interleave
Размер файла : 607 Мбайт
Продолжительность : 58 м.
Общий поток : 1448 Кбит/сек
Программа кодирования : VirtualDubMod 1.5.10.2 (build 2540/release)
Библиотека кодирования : VirtualDubMod build 2540/release
Видео

Идентификатор : 0
Формат : MPEG-4 Visual
Профиль формата : Advanced Simple@L5
Параметр BVOP формата : 2
Параметр QPel формата : Нет
Параметр GMC формата : Без точки перехода
Параметр матрицы формата : Default (H.263)
Режим смешивания : Сжатый битовый поток
Идентификатор кодека : XVID
Идентификатор кодека/Подсказка : XviD
Продолжительность : 58 м.
Битрейт : 1176 Кбит/сек
Ширина : 624 пикс.
Высота : 352 пикс.
Соотношение сторон : 16:9
Частота кадров : 25,000 кадр/сек
Цветовое пространство : YUV
Подвыборка цветности : 4:2:0
Битовая глубина : 8 бит
Тип развёртки : Прогрессивная
Метод сжатия : С потерями
Бит/(Пиксели*Кадры) : 0.214
Размер потока : 493 Мбайт (81%)
Библиотека кодирования : XviD 57
Аудио #1
Идентификатор : 1
Формат : MPEG Audio
Версия формата : Version 1
Профиль формата : Layer 3
Режим : Joint stereo
Расширение режима : MS Stereo
Идентификатор кодека : 55
Идентификатор кодека/Подсказка : MP3
Продолжительность : 58 м.
Вид битрейта : Постоянный
Битрейт : 128 Кбит/сек
Каналы : 2 канала
Частота : 48,0 КГц
Метод сжатия : С потерями
Размер потока : 53,7 Мбайт (9%)
Выравнивание : Соединение по промежуткам
Продолжительность промежутка : 24 мс. (0,60 видеокадр)
Время предзагрузки промежутка : 504 ms

Аудио #2

Идентификатор : 2
Формат : MPEG Audio
Версия формата : Version 1
Профиль формата : Layer 3
Режим : Joint stereo
Расширение режима : MS Stereo
Идентификатор кодека : 55
Идентификатор кодека/Подсказка : MP3
Продолжительность : 58 м.
Вид битрейта : Переменный
Битрейт : 128 Кбит/сек
Каналы : 2 канала
Частота : 48,0 КГц
Метод сжатия : С потерями
Размер потока : 51,3 Мбайт (8%)
Выравнивание : Соединение по промежуткам
Продолжительность промежутка : 24 мс. (0,60 видеокадр)
Время предзагрузки промежутка : 470 ms
Библиотека кодирования : LAME3.98r
Настройки программы : -m j -V 4 -q 2 -lowpass 17 --abr 128



Скачать Грабители.Inside.Men.(Полный.1-ый.сезон).(Джеймс.Кент).[2012.Драма.криминал.экшн.DVDRip].[Gravi-TV.To4ka].torrent без регистрации
Золото ЗОЛОТАЯ РАЗДАЧА! СКАЧАННОЕ НЕ ЗАСЧИТЫВАЕТСЯ! Золото
Дата: Зарегистрирован   [ Тип: внутренний ] Как тут cкачать?
MAGNET ссылка
MAGNET ссылка


Скачать .torrent

13 KB

Статус: проверено DHT
Скачан: торрент - 154 раз, раздача полностью - 48 раз
Размер: 2,37 GB
Оценка:  - (Голосов: 0)
Поблагодарили: 2
Поделиться ссылкой на эту раздачу с друзьями:
В контактеFacebookОдноклассникиTwitterLivejournalМой МирLiveinternet
 

 
Показать сообщения:    


Вы не можете начинать темы
Вы не можете отвечать на сообщения
Вы не можете редактировать свои сообщения
Вы не можете удалять свои сообщения
Вы не можете голосовать в опросах
Вы не можете прикреплять файлы к сообщениям
Вы можете скачивать файлы