Loading...
Error

Скачать Дорога домой 2: Затерянные в Сан-Франциско / Homeward Bound II: Lost in San Francisco (Дэвид Р. Эллис) [1996, комедия, приключения, семейный, DVDRip-AVC] [MVO] + [AVO] (Санаев) + [Eng] + [Subs] (Rus, Eng) торрент без регистрации

 
Статистика раздачи
Размер:  2,18 GB   |    Скачан:  243 раза
Сидов:  1  [  0 KB/s  ]  
 
Автор Сообщение

leon030982

[] 


Дорога домой 2: Затерянные в Сан-Франциско
Homeward Bound II: Lost in San Francisco

Страна: США
Жанр: мелодрама, комедия, приключения, семейный
Год выпуска: 1996
Продолжительность: 01:28:41
Перевод 1: Профессиональный (многоголосый закадровый)
Перевод 2: Авторский (одноголосый закадровый) - Санаев
Cубтитры: русские, английские
Оригинальная аудиодорожка: английский
Режиссер: Дэвид Р. Эллис / David R. Ellis

В ролях: Майкл Дж. Фокс, Салли Филд, Ральф Уэйт, Аль Майклс, Боб Юкер, Тресс МакНилл, Джон Полито, Адам Голдберг

Описание:
Наши старые знакомые – Шанс, Шэдоу и Сэсси опять попадают в невероятную ситуацию. На этот раз, их хозяева собрались в отпуск и взяли животных с собой в клетках для перевозки в самолётах. Но непоседы умудрились сбежать в аэропорту ещё до вылета, подумав, что от них хотят избавиться и очутились в большом незнакомом городе Сан Франциско. И они вновь решили найти путь домой, познакомившись с предводителем банды бродячих собак Райли и красавицей Дилайлой. Им придется ощутить на себе все «прелести» большого города, узнать жестокость местных обитателей, снова попасть в руки ловцам собак, проделать длинный путь и вновь обрести свою любимую семью.

IMDb: 5.40 (5 575)
Семпл: 36,9мб
Качество: {by big1987}
Формат видео: MKV
Видео: кодек: h.264, размер кадра: 716x460 @ 848x460, fps: 23,976, битрейт: 2500 Kbps, Bits/(Pixel*Frame): 0.317
Аудио 1: аудиокодек: AC3 5.1, 48 KHz, битрейт аудио: 448 кб/с - MVO
Аудио 2: аудиокодек: AC3 2.0, 48 KHz, битрейт аудио: 192 кб/с - AVO, Санаев
Аудио 3: аудиокодек: AC3 5.1, 48 KHz, битрейт аудио: 384 кб/с - Eng
Формат субтитров: softsub (SRT)
Размер рипа: 2.18Gb
frame I:1317 Avg QP:15.16 size: 73796
frame P:28226 Avg QP:18.52 size: 28628
frame B:98041 Avg QP:21.83 size: 7728
Format : Matroska
Format version : Version 2
File size : 2.18 GiB
Duration : 1h 28mn
Overall bit rate : 3 526 Kbps
Movie name : Дорога домой 2: Затерянные в Сан-Франциско [1996, DVDRip/AVC] || big1987
Encoded date : UTC 2012-04-20 08:18:10
Writing application : mkvmerge v5.0.1 ('Es ist Sommer') built on Nov 6 2011 16:23:40
Writing library : libebml v1.2.2 + libmatroska v1.3.0
Video
ID : 1
Format : AVC
Format/Info : Advanced Video Codec
Format profile : High@L3.1
Format settings, CABAC : Yes
Format settings, ReFrames : 9 frames
Codec ID : V_MPEG4/ISO/AVC
Duration : 1h 28mn
Bit rate : 2 500 Kbps
Width : 716 pixels
Height : 460 pixels
Display aspect ratio : 16:9
Original display aspect ratio : 16:9
Frame rate : 23.976 fps
Color space : YUV
Chroma subsampling : 4:2:0
Bit depth : 8 bits
Scan type : Progressive
Bits/(Pixel*Frame) : 0.317
Stream size : 1.51 GiB (69%)
Title : Дорога домой 2: Затерянные в Сан-Франциско [1996, DVDRip/AVC] || big1987
Writing library : x264 core 122 r2184 5c85e0a
Encoding settings : cabac=1 / ref=9 / deblock=1:-3:-2 / analyse=0x3:0x133 / me=umh / subme=10 / psy=1 / psy_rd=1.00:0.20 / mixed_ref=1 / me_range=32 / chroma_me=1 / trellis=2 / 8x8dct=1 / cqm=0 / deadzone=21,11 / fast_pskip=0 / chroma_qp_offset=-3 / threads=6 / sliced_threads=0 / nr=0 / decimate=0 / interlaced=0 / bluray_compat=0 / constrained_intra=0 / bframes=9 / b_pyramid=2 / b_adapt=2 / b_bias=0 / direct=3 / weightb=1 / open_gop=0 / weightp=2 / keyint=250 / keyint_min=23 / scenecut=40 / intra_refresh=0 / rc_lookahead=60 / rc=2pass / mbtree=1 / bitrate=2500 / ratetol=1.0 / qcomp=0.60 / qpmin=0 / qpmax=69 / qpstep=4 / cplxblur=20.0 / qblur=0.5 / ip_ratio=1.40 / aq=1:1.00
Language : English
Default : Yes
Forced : No
Audio #1
ID : 2
Format : AC-3
Format/Info : Audio Coding 3
Mode extension : CM (complete main)
Codec ID : A_AC3
Duration : 1h 28mn
Bit rate mode : Constant
Bit rate : 448 Kbps
Channel(s) : 6 channels
Channel positions : Front: L C R, Side: L R, LFE
Sampling rate : 48.0 KHz
Bit depth : 16 bits
Compression mode : Lossy
Stream size : 284 MiB (13%)
Title : MVO [AC3 5.1@448kbps]
Language : Russian
Default : Yes
Forced : No
Audio #2
ID : 3
Format : AC-3
Format/Info : Audio Coding 3
Mode extension : CM (complete main)
Codec ID : A_AC3
Duration : 1h 28mn
Bit rate mode : Constant
Bit rate : 192 Kbps
Channel(s) : 2 channels
Channel positions : Front: L R
Sampling rate : 48.0 KHz
Bit depth : 16 bits
Compression mode : Lossy
Stream size : 122 MiB (5%)
Title : AVO {Санаев} [AC3 2.0@192kbps]
Language : Russian
Default : No
Forced : No
Audio #3
ID : 4
Format : AC-3
Format/Info : Audio Coding 3
Mode extension : CM (complete main)
Codec ID : A_AC3
Duration : 1h 28mn
Bit rate mode : Constant
Bit rate : 384 Kbps
Channel(s) : 6 channels
Channel positions : Front: L C R, Side: L R, LFE
Sampling rate : 48.0 KHz
Bit depth : 16 bits
Compression mode : Lossy
Stream size : 244 MiB (11%)
Title : [AC3 5.1@384kbps]
Language : English
Default : No
Forced : No
Text #1
ID : 5
Format : UTF-8
Codec ID : S_TEXT/UTF8
Codec ID/Info : UTF-8 Plain Text
Title : Full
Language : Russian
Default : No
Forced : No
Text #2
ID : 6
Format : UTF-8
Codec ID : S_TEXT/UTF8
Codec ID/Info : UTF-8 Plain Text
Title : Full
Language : English
Default : No
Forced : No



Скачать Дорога.домой.2.Затерянные.в.Сан-Франциско.Homeward.Bound.II.Lost.in.San.Francisco.(Дэвид.Р.Эллис).[1996.комедия.приключения.семейный.DVDRip-AVC].[MVO].+.[AVO].(Санаев).+.[Eng].+.[Subs].(Rus.Eng).torrent без регистрации
Золото ЗОЛОТАЯ РАЗДАЧА! СКАЧАННОЕ НЕ ЗАСЧИТЫВАЕТСЯ! Золото
Дата: Зарегистрирован   [ Тип: внутренний ] Как тут cкачать?
MAGNET ссылка
MAGNET ссылка


Скачать .torrent

12 KB

Статус: проверено DHT
Скачан: торрент - 243 раз, раздача полностью - 122 раз
Размер: 2,18 GB
Оценка:  - (Голосов: 0)
Поблагодарили: 2
Поделиться ссылкой на эту раздачу с друзьями:
В контактеFacebookОдноклассникиTwitterLivejournalМой МирLiveinternet
 

 
Показать сообщения:    


Вы не можете начинать темы
Вы не можете отвечать на сообщения
Вы не можете редактировать свои сообщения
Вы не можете удалять свои сообщения
Вы не можете голосовать в опросах
Вы не можете прикреплять файлы к сообщениям
Вы можете скачивать файлы