Loading...
Error

Super / Superbad ( ) [2007, , , DVDRip] [ / Theatrical Cut] [Dub]

 
746 MB   |    :  101
1  [  0 KB/s  ]  
 

leon030982

[] 

Super / Superbad [ / Theatrical Cut]

, ?

:
:
: 2007
: 01:48:19
: ()
C:
: / Greg Mottola
: , , -, , , , , , , ...
: . -, ?..

:
: aleksndr
: DVDRip |
: AVI
: 624x336 (1.86:1), 25 fps, XviD build 65 ~824 kbps avg, 0.16 bit/pixel
: 48 kHz, MPEG Layer 3, 2 ch, ~128.00 kbps avg

:

General
Complete name : SuperPercy.2007.D.DVDRip.RG.YouMovie.avi
Format : AVI
Format/Info : Audio Video Interleave
File size : 746 MiB
Duration : 1h 48mn
Overall bit rate : 963 Kbps
Writing application : VirtualDubMod 1.5.10.3 | www.virtualdub-fr.org || (build 2550/release)
Writing library : VirtualDubMod build 2550/release
Video
ID : 0
Format : MPEG-4 Visual
Format profile : Advanced Simple@L5
Format settings, BVOP : 1
Format settings, QPel : No
Format settings, GMC : No warppoints
Format settings, Matrix : Custom
Codec ID : XVID
Codec ID/Hint : XviD
Duration : 1h 48mn
Bit rate : 825 Kbps
Width : 624 pixels
Height : 336 pixels
Display aspect ratio : 1.857
Frame rate : 25.000 fps
Color space : YUV
Chroma subsampling : 4:2:0
Bit depth : 8 bits
Scan type : Progressive
Compression mode : Lossy
Bits/(Pixel*Frame) : 0.157
Stream size : 639 MiB (86%)
Writing library : XviD 65
Audio
ID : 1
Format : MPEG Audio
Format version : Version 1
Format profile : Layer 3
Codec ID : 55
Codec ID/Hint : MP3
Duration : 1h 48mn
Bit rate mode : Constant
Bit rate : 128 Kbps
Channel(s) : 2 channels
Sampling rate : 48.0 KHz
Compression mode : Lossy
Stream size : 99.2 MiB (13%)
Alignment : Aligned on interleaves
Interleave, duration : 40 ms (1.00 video frame)
Interleave, preload duration : 504 ms
Writing library : L3.99r
Encoding settings : -m s -V 4 -q 0 -lowpass 17 -b 128


by aleksndr



Super.Superbad.(.).[2007...DVDRip].[..Theatrical.Cut].[Dub].torrent
  ! ! 
:   [ : ] c?
MAGNET
MAGNET


.torrent

15 KB

: DHT
: - 101 , - 3
: 746 MB
- (: 0)
: 0
:
 FacebookTwitterLivejournal Liveinternet
 

 
: