Loading...
Error

Скачать Что тебя не убивает / What Doesn't Kill You (Брайан Гудман) [2008, драма, криминал, HDRip] [DVO] торрент без регистрации

 
Статистика раздачи
Размер:  1,43 GB   |    Скачан:  109 раз
Сидов:  1  [  0 KB/s  ]  
 
Автор Сообщение

Jenek

[] 

Информация о фильме
Название: Что тебя не убивает
Оригинальное название: What Doesn't Kill You
Год выхода: 2008
Жанр: драма, криминал
Режиссер: Брайан Гудман
В ролях: Марк Руффало, Этан Хоук, Аманда Пит, Джей Джанноне, Мэнди Олсен, Брайан Гудман, Донни Уолберг, Анджела Фезерстоун, Бэрри Эйс, Майкл Балканофф

О фильме:
Это история двух друзей детства из неблагополучных семей. Еще в школе они начали заниматься вооруженными грабежами, что в итоге не уберегло их от наркотиков и тюрьмы. По прошествии срока друзья меняются, но судьба подкидывает им «ограбление века».


Страна: США
Студия: Battleplan Productions, Yari Film Group Releasing
Продолжительность: 01:40:04
Перевод: Профессиональный двухгоголосый

Файл
Формат: AVI
Кодек: XviD
Качество: HDRip
Видео: 720x304, 23,976 кадра/сек,1589 Кбит/с
Звук: AC3, 48 КГц, 6 ch, 448 Кбит/с
Субтитры: отсутствуют
Формат : AVI
Формат/Информация : Audio Video Interleave
Размер файла : 1,43 Гбайт
Продолжительность : 1 ч. 40 м.
Общий поток : 2046 Кбит/сек
Программа кодирования : VirtualDubMod 1.5.10.2 (build 2540/release)
Библиотека кодирования : VirtualDubMod build 2540/release

Видео
Идентификатор : 0
Формат : MPEG-4 Visual
Профиль формата : Advanced Simple@L5
Параметр BVOP формата : 1
Параметр QPel формата : Нет
Параметр GMC формата : Без точки перехода
Параметр матрицы формата : Default (MPEG)
Идентификатор кодека : XVID
Идентификатор кодека/Подсказка : XviD
Продолжительность : 1 ч. 40 м.
Битрейт : 1589 Кбит/сек
Ширина : 720 пикселей
Высота : 304 пикселя
Соотношение сторон : 2,35:1
Частота кадров : 23,976 кадра/сек
Цветовое пространство : YUV
Субдискретизация насыщенности : 4:2:0
Битовая глубина : 8 бит
Тип развёртки : Прогрессивная
Метод сжатия : С потерями
Бит/(Пиксели*Кадры) : 0.303
Размер потока : 1,11 Гбайт (78%)
Библиотека кодирования : XviD 1.2.0.dev47 (UTC 2006-11-01)

Аудио
Идентификатор : 1
Формат : AC-3
Формат/Информация : Audio Coding 3
Расширение режима : CM (complete main)
Идентификатор кодека : 2000
Продолжительность : 1 ч. 40 м.
Вид битрейта : Постоянный
Битрейт : 448 Кбит/сек
Каналы : 6 каналов
Расположение каналов : Front: L C R, Side: L R, LFE
Частота : 48,0 КГц
Битовая глубина : 16 бит
Метод сжатия : С потерями
Размер потока : 321 Мбайт (22%)
Выравнивание : Разделение по промежуткам
Продолжительность промежутка : 42 мс. (1,00 видеокадр)
Время предзагрузки промежутка : 500 мс.



Скачать Что.тебя.не.убивает.What.Doesn't.Kill.You.(Брайан.Гудман).[2008.драма.криминал.HDRip].[DVO].torrent без регистрации
Золото ЗОЛОТАЯ РАЗДАЧА! СКАЧАННОЕ НЕ ЗАСЧИТЫВАЕТСЯ! Золото
Дата: Зарегистрирован   [ Тип: внутренний ] Как тут cкачать?
MAGNET ссылка
MAGNET ссылка


Скачать .torrent

15 KB

Статус: проверено DHT
Скачан: торрент - 109 раз, раздача полностью - 19 раз
Размер: 1,43 GB
Оценка:  - (Голосов: 0)
Поблагодарили: 3
Поделиться ссылкой на эту раздачу с друзьями:
В контактеFacebookОдноклассникиTwitterLivejournalМой МирLiveinternet
 

 
Показать сообщения:    


Вы не можете начинать темы
Вы не можете отвечать на сообщения
Вы не можете редактировать свои сообщения
Вы не можете удалять свои сообщения
Вы не можете голосовать в опросах
Вы не можете прикреплять файлы к сообщениям
Вы можете скачивать файлы