Loading...
Error

Скачать Пророк / A Prophet / Un prophète (Жак Одьяр / Jacques Audiard) [2009, драма, криминал, BDRip] [MVO] (Лицензия R5) + [Original] (Fre) + [Subs] (rus,eng) торрент без регистрации

 
Статистика раздачи
Размер:  2,91 GB   |    Скачан:  144 раза
Сидов:  1  [  0 KB/s  ]  
 
Автор Сообщение

leon030982

[] 

Пророк /
A PROPFET / Un prophète
«Ему 19. Против него весь мир. Но Малик готов его завоевать.»
Страна: Франция, Италия
Жанр: драма, криминал
Год выпуска: 2009
Продолжительность: 02:35:04
Перевод: профессиональный (многоголосый закадровый) лицензия R5
Субтитры: русские (Full) + английские (Full) отдельно
Оригинальная аудиодорожка: французский
Режиссёр: Жак Одьяр / Jacques Audiard
В ролях: Тахар Рахим, Нильс Ареструп, Адель Беншериф, Хайсем Якуби, Реда Катеб, Жан-Филипп Риччи, Жиль Коэн, Антуан Баслер, Лейла Бекти, Pierre Leccia.
Описание:

Приговоренный к шести годам тюрьмы, Малик Эль Джебена кажется на фоне других заключенных самым «зеленым» и самым уязвимым. Ему 19 лет. Он не умеет ни писать, ни читать. За стенами тюрьмы у него нет близких.
Все меняется, когда Лучано, лидер авторитетной банды корсиканцев, решает поручить Малику ряд опасных и рискованных миссий… Выполнение любой из этих «миссий» под прессингом корсиканцев могло бы сломить кого угодно, но не его. Каждое задание закаляет Малика. Он быстро учится жизни в новом для себя мире. Завоевывает доверие корсиканцев и мусульман. И вскоре начинает вынашивать собственные дерзкие планы…

Доп. информация: Лента получила Большой приз жюри на фестивале в Каннах в 2009 году, а также была номинирована на Оскара в 2010 году, как лучший иностранный фильм.
8.0/10 (31160) 7.537 (8821)
Качество видео: BDRip (Исходник BDRemux)
Формат файла: AVI
Видео: XviD, 720x384 (1.88:1), 24.000 fps, 1778 kbps avg, 0.268 bit/pixel
Аудио 1: 48 kHz, AC3 Dolby Digital, 3/2 (L,C,R,l,r) + LFE ch, 448 kbps avg (Rus MVO)
Аудио 2: 48 kHz, AC3 Dolby Digital, 3/2 (L,C,R,l,r) + LFE ch, 448 kbps avg (Original Fre)
Формат субтитров: softsub (SRT)
Общее
Полное имя : D:\Torrent Rutracker\Un.prophete.2009.DUAL.MVO.XviD.AC3.BDRip._by.ZNG505\Un.prophete.2009.DUAL.MVO.XviD.AC3.BDRip.avi
Формат : AVI
Формат/Информация : Audio Video Interleave
Профиль формата : OpenDML
Размер файла : 2,91 Гбайт
Продолжительность : 2 ч. 35 м.
Общий поток : 2690 Кбит/сек
Программа кодирования : VirtualDubModRus 1.5.10.2 (build 2542/release)
Библиотека кодирования : VirtualDubMod build 2542/release
Видео
Идентификатор : 0
Формат : MPEG-4 Visual
Профиль формата : Advanced Simple@L5
Параметр BVOP формата : 1
Параметр QPel формата : Нет
Параметр GMC формата : Без точки перехода
Параметр матрицы формата : Выборочная
Идентификатор кодека : XVID
Идентификатор кодека/Подсказка : XviD
Продолжительность : 2 ч. 35 м.
Битрейт : 1778 Кбит/сек
Ширина : 720 пикселей
Высота : 384 пикселя
Соотношение сторон : 1,875
Частота кадров : 24,000 кадра/сек
Цветовое пространство : YUV
Субдискретизация насыщенности : 4:2:0
Битовая глубина : 8 бит
Тип развёртки : Прогрессивная
Метод сжатия : С потерями
Бит/(Пиксели*Кадры) : 0.268
Размер потока : 1,93 Гбайт (66%)
Библиотека кодирования : XviD 1.2.1 (UTC 2008-12-04)
Аудио #1
Идентификатор : 1
Формат : AC-3
Формат/Информация : Audio Coding 3
Расширение режима : CM (complete main)
Идентификатор кодека : 2000
Продолжительность : 2 ч. 35 м.
Вид битрейта : Постоянный
Битрейт : 448 Кбит/сек
Каналы : 6 каналов
Расположение каналов : Front: L C R, Side: L R, LFE
Частота : 48,0 КГц
Битовая глубина : 16 бит
Метод сжатия : С потерями
Размер потока : 497 Мбайт (17%)
Выравнивание : Разделение по промежуткам
Продолжительность промежутка : 42 мс. (1,00 видеокадр)
Время предзагрузки промежутка : 500 мс.
Аудио #2
Идентификатор : 2
Формат : AC-3
Формат/Информация : Audio Coding 3
Расширение режима : CM (complete main)
Идентификатор кодека : 2000
Продолжительность : 2 ч. 35 м.
Вид битрейта : Постоянный
Битрейт : 448 Кбит/сек
Каналы : 6 каналов
Расположение каналов : Front: L C R, Side: L R, LFE
Частота : 48,0 КГц
Битовая глубина : 16 бит
Метод сжатия : С потерями
Размер потока : 497 Мбайт (17%)
Выравнивание : Разделение по промежуткам
Продолжительность промежутка : 42 мс. (1,00 видеокадр)
Время предзагрузки промежутка : 500 мс.



Скачать Пророк.A.Prophet.Un.prophète.(Жак.Одьяр.Jacques.Audiard).[2009.драма.криминал.BDRip].[MVO].(Лицензия.R5).+.[Original].(Fre).+.[Subs].(rus.eng).torrent без регистрации
Золото ЗОЛОТАЯ РАЗДАЧА! СКАЧАННОЕ НЕ ЗАСЧИТЫВАЕТСЯ! Золото
Дата: Зарегистрирован   [ Тип: внутренний ] Как тут cкачать?
MAGNET ссылка
MAGNET ссылка


Скачать .torrent

15 KB

Статус: проверено DHT
Скачан: торрент - 144 раз, раздача полностью - 33 раз
Размер: 2,91 GB
Оценка:  5 (Голосов: 2)
Поблагодарили: 3
Поделиться ссылкой на эту раздачу с друзьями:
В контактеFacebookОдноклассникиTwitterLivejournalМой МирLiveinternet
 

 
Показать сообщения:    


Вы не можете начинать темы
Вы не можете отвечать на сообщения
Вы не можете редактировать свои сообщения
Вы не можете удалять свои сообщения
Вы не можете голосовать в опросах
Вы не можете прикреплять файлы к сообщениям
Вы можете скачивать файлы