Loading...
Error

Скачать Великая иллюзия / La grande illusion (Жан Ренуар) [1937, Драма, военный, BDRip] [MVO] (Петербург 5-й канал) + [MVO] (Film Prestige) + [MVO] (DVD Магия) + [MVO] (Светла) торрент без регистрации

 
Статистика раздачи
Размер:  1,91 GB   |    Скачан:  120 раз
Сидов:  1  [  0 KB/s  ]  
 
Автор Сообщение

leon030982

[] 

Великая иллюзия

Страна: Франция
Жанр: Драма, военный
Год выпуска: 1937
Продолжительность: 01:53:42
Перевод 1: Профессиональный (многоголосый закадровый) Доп. инфо о переводе Петербург 5-й канал
Перевод 2: Профессиональный (многоголосый закадровый) Доп. инфо о переводе 2 Film Prestige
Перевод 3: Профессиональный (многоголосый закадровый) Доп. инфо о переводе 3 DVD Магия
Перевод 4: Профессиональный (многоголосый закадровый) Доп. инфо о переводе 4 Светла
Cубтитры: Нет
Режиссер: Жан Ренуар / Jean Renoir

В ролях: Жан Габен, Дита Парло, Пьер Френе, Эрих фон Штрогейм, Жюльен Каретт, Жорж Пекле, Вернер Флориан, Жан Дасте, Сильвен Иткин, Гастон Модо, Марсель Далио

Описание: Первая мировая война. Самолёт французских лётчиков Морешаля и Больде сбит немецким асом фон Рауффенштайном, но оба пилота остались живы и попали в лагерь для военнопленных. Там же находятся несколько британских офицеров, с которыми новички объединяются в работе над тоннелем для побега. После победы французов на Западном фронте Морешаля, Болдье и остальных французских военнопленных переводят в другую тюрьму, где комендантом назначен их «старый знакомый» фон Рауффенштайн. Комендант тепло встречает французов, замечая, что из «его» тюрьмы побег невозможен...

Сэмпл: http://multi-up.com/690277
Качество видео: BDRip
Формат видео: AVI
Видео: MPEG-4 Visual, 1624 Кбит/сек, 704 x 512 (1.375), 24.000 fps, 0.19 bit/pixel
Аудио #1: AC-3, 192 Кбит/сек, 2 канала, 48,0 КГц - Петербург 5-й канал
Аудио #2: AC-3, 192 Кбит/сек, 2 канала, 48,0 КГц - Film Prestige (отдельным файлом)
Аудио #3: AC-3, 192 Кбит/сек, 2 канала, 48,0 КГц - DVD Магия (отдельным файлом)
Аудио #4: AC-3, 192 Кбит/сек, 2 канала, 48,0 КГц - Светла (отдельным файлом)
Общее
Полное имя : Velikaya.illyuziya.1937.BDRip.avi
Формат : AVI
Формат/Информация : Audio Video Interleave
Размер файла : 1,45 Гбайт
Продолжительность : 1 ч. 53 м.
Общий поток : 1826 Кбит/сек
Программа кодирования : VirtualDubMod 1.5.10.3 | www.virtualdub-fr.org || (build 2550/release)
Библиотека кодирования : VirtualDubMod build 2550/release
Видео
Идентификатор : 0
Формат : MPEG-4 Visual
Профиль формата : Advanced Simple@L5
Параметр BVOP формата : 2
Параметр QPel формата : Нет
Параметр GMC формата : Без точки перехода
Параметр матрицы формата : Default (MPEG)
Идентификатор кодека : XVID
Идентификатор кодека/Подсказка : XviD
Продолжительность : 1 ч. 53 м.
Битрейт : 1624 Кбит/сек
Ширина : 704 пикселя
Высота : 512 пикселей
Соотношение сторон : 1,375
Частота кадров : 24,000 кадра/сек
Цветовое пространство : YUV
Субдискретизация насыщенности : 4:2:0
Битовая глубина : 8 бит
Тип развёртки : Прогрессивная
Метод сжатия : С потерями
Бит/(Пиксели*Кадры) : 0.188
Размер потока : 1,29 Гбайт (89%)
Библиотека кодирования : XviD 64
Аудио
Идентификатор : 1
Формат : AC-3
Формат/Информация : Audio Coding 3
Расширение режима : CM (complete main)
Параметр Endianness формата : Big
Идентификатор кодека : 2000
Продолжительность : 1 ч. 53 м.
Вид битрейта : Постоянный
Битрейт : 192 Кбит/сек
Каналы : 2 канала
Расположение каналов : Front: L R
Частота : 48,0 КГц
Битовая глубина : 16 бит
Метод сжатия : С потерями
Размер потока : 156 Мбайт (11%)
Выравнивание : Разделение по промежуткам
Продолжительность промежутка : 42 мс. (1,00 видеокадр)
Время предзагрузки промежутка : 500 мс.
Общее
Полное имя : Velikaya.illyuziya.1937.AC3.DVD.Magia.ac3
Формат : AC-3
Формат/Информация : Audio Coding 3
Размер файла : 156 Мбайт
Продолжительность : 1 ч. 53 м.
Режим общего битрейта : Постоянный
Общий поток : 192 Кбит/сек
Аудио
Формат : AC-3
Формат/Информация : Audio Coding 3
Расширение режима : CM (complete main)
Параметр Endianness формата : Big
Продолжительность : 1 ч. 53 м.
Вид битрейта : Постоянный
Битрейт : 192 Кбит/сек
Каналы : 2 канала
Расположение каналов : Front: L R
Частота : 48,0 КГц
Битовая глубина : 16 бит
Метод сжатия : С потерями
Размер потока : 156 Мбайт (100%)
Общее
Полное имя : Velikaya.illyuziya.1937.AC3.Film.Prestige.ac3
Формат : AC-3
Формат/Информация : Audio Coding 3
Размер файла : 156 Мбайт
Продолжительность : 1 ч. 53 м.
Режим общего битрейта : Постоянный
Общий поток : 192 Кбит/сек
Аудио
Формат : AC-3
Формат/Информация : Audio Coding 3
Расширение режима : CM (complete main)
Параметр Endianness формата : Big
Продолжительность : 1 ч. 53 м.
Вид битрейта : Постоянный
Битрейт : 192 Кбит/сек
Каналы : 2 канала
Расположение каналов : Front: L R
Частота : 48,0 КГц
Битовая глубина : 16 бит
Метод сжатия : С потерями
Размер потока : 156 Мбайт (100%)
Общее
Полное имя : Velikaya.illyuziya.1937.AC3.Svetla.ac39
Формат : AC-3
Формат/Информация : Audio Coding 3
Размер файла : 156 Мбайт
Продолжительность : 1 ч. 53 м.
Режим общего битрейта : Постоянный
Общий поток : 192 Кбит/сек
Аудио
Формат : AC-3
Формат/Информация : Audio Coding 3
Расширение режима : CM (complete main)
Параметр Endianness формата : Big
Продолжительность : 1 ч. 53 м.
Вид битрейта : Постоянный
Битрейт : 192 Кбит/сек
Каналы : 2 канала
Расположение каналов : Front: L R
Частота : 48,0 КГц
Битовая глубина : 16 бит
Метод сжатия : С потерями
Размер потока : 156 Мбайт (100%)



Скачать Великая.иллюзия.La.grande.illusion.(Жан.Ренуар).[1937.Драма.военный.BDRip].[MVO].(Петербург.5-й.канал).+.[MVO].(Film.Prestige).+.[MVO].(DVD.Магия).+.[MVO].(Светла).torrent без регистрации
Золото ЗОЛОТАЯ РАЗДАЧА! СКАЧАННОЕ НЕ ЗАСЧИТЫВАЕТСЯ! Золото
Дата: Зарегистрирован   [ Тип: внутренний ] Как тут cкачать?
MAGNET ссылка
MAGNET ссылка


Скачать .torrent

20 KB

Статус: проверено DHT
Скачан: торрент - 120 раз, раздача полностью - 2 раз
Размер: 1,91 GB
Оценка:  - (Голосов: 0)
Поблагодарили: 0
Поделиться ссылкой на эту раздачу с друзьями:
В контактеFacebookОдноклассникиTwitterLivejournalМой МирLiveinternet
 

 
Показать сообщения:    


Вы не можете начинать темы
Вы не можете отвечать на сообщения
Вы не можете редактировать свои сообщения
Вы не можете удалять свои сообщения
Вы не можете голосовать в опросах
Вы не можете прикреплять файлы к сообщениям
Вы можете скачивать файлы