Loading...
Error

Скачать Синоптик / The Weather Man (Гор Вербински) [2005 г., драма, комедия, HDTVRip-AVC] [MVO] торрент без регистрации

 
Статистика раздачи
Размер:  1,46 GB   |    Скачан:  111 раз
Сидов:  1  [  0 KB/s  ]  
 
Автор Сообщение

leon030982

[] 

Синоптик / The Weather Man
«...захватите зонтик»
Год выпуска: 2005
Выпущено: США, Германия / Paramount Pictures
Жанр: драма, комедия
Продолжительность: 01:37:33
Перевод: Профессиональный (многоголосый)
Режиссер: Гор Вербински / Gore Verbinski
В ролях: Николас Кейдж, Майкл Кейн, Хоуп Дэвис, Джеменн де ла Пенья, Николас Холт, Майкл Рисполи, Джил Беллоуз, Джудит МакКоннелл, Крис Маррс, Дина Фэклис
Сюжет: Дэйв Спиртс — один из тех счастливчиков, которым принято завидовать. Популярный ведущий прогноза погоды, он получает приглашение работать в крупном нью-йоркском телешоу. Деньги, признание, отличные перспективы — удача явно на его стороне. Но мысль об этом почему-то больше не греет.
Пока «глашатай морозов и дождей» покорял профессиональные вершины, его личная жизнь полностью расстроилась. Из-за тяжелого развода, болезни отца и проблем с детьми Дэйв — на грани нервного срыва. И чем упорней он пытается контролировать ситуацию, тем больше понимает: жизнь так же непредсказуема, как и погода…
IMDB // КиноПоиск // Сэмпл
Качество видео: HDTVRip-AVC
Формат: MKV
Видео кодек: H.264
Аудио кодек: AC3
Видео: H.264, 960 x 522, 25 fps, ~1942 Кбит/с
Аудио #1: AC3, 192 Кбит/с, 48 kHz (2 ch)Russian


Cубтитры: Английские

avs [info]: 960x522p 1:1 @ 25/1 fps (cfr)
x264 [info]: using SAR=1/1
x264 [info]: using cpu capabilities: MMX2 SSE2Fast SSSE3 Cache64
x264 [info]: profile High, level 4.0
x264 [info]: frame I:1129 Avg QP:16.80 size: 58137
x264 [info]: frame P:32439 Avg QP:19.07 size: 21530
x264 [info]: frame B:112770 Avg QP:22.45 size: 5822
x264 [info]: consecutive B-frames: 0.5% 1.9% 5.6% 40.4% 17.2% 26.3% 4.5% 2.6% 0.7% 0.2%
x264 [info]: mb I I16..4: 10.0% 70.4% 19.6%
x264 [info]: mb P I16..4: 4.8% 6.2% 1.2% P16..4: 50.9% 22.6% 6.5% 0.5% 0.5% skip: 6.8%
x264 [info]: mb B I16..4: 0.1% 0.5% 0.1% B16..8: 36.0% 8.6% 2.4% direct: 5.4% skip:46.9% L0:41.0% L1:46.4% BI:12.6%
x264 [info]: 8x8 transform intra:57.2% inter:59.6%
x264 [info]: direct mvs spatial:99.2% temporal:0.8%
x264 [info]: coded y,uvDC,uvAC intra: 63.0% 72.2% 40.7% inter: 21.8% 17.5% 4.5%
x264 [info]: i16 v,h,dc,p: 72% 11% 6% 11%
x264 [info]: i8 v,h,dc,ddl,ddr,vr,hd,vl,hu: 13% 10% 8% 9% 12% 13% 12% 11% 12%
x264 [info]: i4 v,h,dc,ddl,ddr,vr,hd,vl,hu: 14% 13% 5% 8% 13% 13% 12% 11% 12%
x264 [info]: i8c dc,h,v,p: 43% 25% 21% 12%
x264 [info]: Weighted P-Frames: Y:2.2% UV:1.2%
x264 [info]: ref P L0: 51.4% 10.9% 15.2% 7.3% 5.5% 4.3% 3.4% 1.9% 0.1% 0.0%
x264 [info]: ref B L0: 77.8% 12.3% 4.9% 2.2% 1.5% 0.8% 0.4%
x264 [info]: ref B L1: 94.0% 6.0%
x264 [info]: SSIM Mean Y:0.9826881 (17.617db)
x264 [info]: kb/s:1941.53
x264 [total]: encoded 146338 frames, 3.51 fps, 1941.53 kb/s
General
UniqueID : 201064261610740123495738475890461424308 (0x97439176BFDE38E3B42E8144FB60BAB4)
Complete name : D:\VIDEO\The.Weather.Man.2005.HDTVRip-AVC.mkv
Format : Matroska
File size : 1.46 GiB
Duration : 1h 37mn
Overall bit rate : 2 135 Kbps
Encoded date : UTC 2010-12-18 15:54:08
Writing application : mkvmerge v3.4.0 ('Rapunzel') built on May 15 2010 09:38:20
Writing library : libebml v0.8.0 + libmatroska v0.9.0
Video
ID : 1
Format : AVC
Format/Info : Advanced Video Codec
Format profile : High@L4.0
Format settings, CABAC : Yes
Format settings, ReFrames : 8 frames
Codec ID : V_MPEG4/ISO/AVC
Duration : 1h 37mn
Bit rate : 1 942 Kbps
Width : 960 pixels
Height : 522 pixels
Display aspect ratio : 16:9
Frame rate : 25.000 fps
Color space : YUV
Chroma subsampling : 4:2:0
Bit depth : 8 bits
Scan type : Progressive
Bits/(Pixel*Frame) : 0.155
Stream size : 1.30 GiB (89%)
Title : The Weather Man
Writing library : x264 core 112 r1834 a51816a
Encoding settings : cabac=1 / ref=8 / deblock=1:-2:-1 / analyse=0x3:0x133 / me=umh / subme=10 / psy=1 / psy_rd=1.00:0.00 / mixed_ref=1 / me_range=24 / chroma_me=0 / trellis=2 / 8x8dct=1 / cqm=0 / deadzone=21,11 / fast_pskip=0 / chroma_qp_offset=-2 / threads=3 / sliced_threads=0 / nr=0 / decimate=0 / interlaced=0 / constrained_intra=0 / bframes=9 / b_pyramid=2 / b_adapt=2 / b_bias=0 / direct=3 / weightb=1 / open_gop=0 / weightp=2 / keyint=250 / keyint_min=25 / scenecut=40 / intra_refresh=0 / rc_lookahead=80 / rc=2pass / mbtree=1 / bitrate=1942 / ratetol=1.0 / qcomp=0.70 / qpmin=0 / qpmax=51 / qpstep=4 / cplxblur=20.0 / qblur=0.5 / vbv_maxrate=25000 / vbv_bufsize=31250 / ip_ratio=1.40 / aq=2:1.00 / nal_hrd=none
Language : English
Audio
ID : 2
Format : AC-3
Format/Info : Audio Coding 3
Mode extension : CM (complete main)
Codec ID : A_AC3
Duration : 1h 37mn
Bit rate mode : Constant
Bit rate : 192 Kbps
Channel(s) : 2 channels
Channel positions : Front: L R
Sampling rate : 48.0 KHz
Bit depth : 16 bits
Compression mode : Lossy
Stream size : 134 MiB (9%)
Title : Профессиональный (многоголосый)
Language : Russian
Text
ID : 3
Format : UTF-8
Codec ID : S_TEXT/UTF8
Codec ID/Info : UTF-8 Plain Text
Title : Английские
Language : English



Скачать Синоптик.The.Weather.Man.(Гор.Вербински).[2005.г.драма.комедия.HDTVRip-AVC].[MVO].torrent без регистрации
Золото ЗОЛОТАЯ РАЗДАЧА! СКАЧАННОЕ НЕ ЗАСЧИТЫВАЕТСЯ! Золото
Дата: Зарегистрирован   [ Тип: внутренний ] Как тут cкачать?
MAGNET ссылка
MAGNET ссылка


Скачать .torrent

15 KB

Статус: проверено DHT
Скачан: торрент - 111 раз, раздача полностью - 8 раз
Размер: 1,46 GB
Оценка:  - (Голосов: 0)
Поблагодарили: 0
Поделиться ссылкой на эту раздачу с друзьями:
В контактеFacebookОдноклассникиTwitterLivejournalМой МирLiveinternet
 

 
Показать сообщения:    


Вы не можете начинать темы
Вы не можете отвечать на сообщения
Вы не можете редактировать свои сообщения
Вы не можете удалять свои сообщения
Вы не можете голосовать в опросах
Вы не можете прикреплять файлы к сообщениям
Вы можете скачивать файлы