Loading...
Error

Скачать Незваный гость / Intruder (Скотт Спигел) [1989, ужасы, триллер, BDRip-AVC] [VO] торрент без регистрации

 
Статистика раздачи
Размер:  1,45 GB   |    Скачан:  136 раз
Сидов:  1  [  0 KB/s  ]  
 
Автор Сообщение

Jenek

[] 

Незваный гость / Intruder (1989) BDRip-AVC от PowerTracker

Жанр: ужасы, триллер
Страна: США
Режиссер: Скотт Спигел
В ролях: Элизабет Кокс, Рене Эстевез, Дэн Хикс, Дэвид Бернс, Сэм Рэйми, Юджин Роберт Глейзер, Билли Марти, Бёрр Стирс, Крэйг Старк, Тед Рейми ...

Сюжет фильма: Бывший друг продавщицы супермаркета приходит к ней перед окончанием рабочего дня. Молодые люди ссорятся, и охранник выкидывает парня на улицу. Супермаркет закрывается, а продавцы и кладовщики остаются на инвентаризацию. Вскоре они начинают один за другим погибать самыми разнообразными способами

Мировая премьера: 27 января 1989



Продолжительность: 01:27:35
Качество видео: BDRip-AVC
Видео: кодек: x264, размер кадра: 1024x576, битрейт: 1756 кб/с, bit/pixel: 0.124
Аудио #1: язык: Русский , перевод: одноголосный закадровый (В. Дохалов), кодек: AC3 2.0, битрейт: 192.00 кб/с
Аудио #2: язык: Русский , перевод: одноголосный закадровый (А. Гаврилов), кодек: AC3 2.0, битрейт: 224.00 кб/с
Аудио #3: язык: Английский , перевод: оригинал, кодек: AC3 2.0, битрейт: 192.00 кб/с

&
Общее
Уникальный идентификатор : 184639436249042898339338964907299725278 (0x8AE8430D1A4901D69C95DD6C33985FDE)
Полное имя : D:Intruder.1989.BDRip-AVC.PT.mkv
Формат : Matroska
Версия формата : Version 2
Размер файла : 1,45 Гбайт
Продолжительность : 1 ч. 27 м.
Общий поток : 2362 Кбит/сек
Название фильма : Незваный гость / Intruder (1989) BDRip-AVC rip by rulya74
Дата кодирования : UTC 2012-04-22 04:43:45
Программа кодирования : mkvmerge v5.2.1 ('A Far Off Place') built on Jan 2 2012 23:21:10
Библиотека кодирования : libebml v1.2.3 + libmatroska v1.3.0

Видео
Идентификатор : 1
Формат : AVC
Формат/Информация : Advanced Video Codec
Профиль формата : High@L4.1
Параметр CABAC формата : Да
Параметр ReFrames формата : 13 кадров
Идентификатор кодека : V_MPEG4/ISO/AVC
Продолжительность : 1 ч. 27 м.
Битрейт : 1756 Кбит/сек
Ширина : 1024 пикселя
Высота : 576 пикселей
Соотношение сторон : 16:9
Частота кадров : 23,976 кадра/сек
Цветовое пространство : YUV
Субдискретизация насыщенности : 4:2:0
Битовая глубина : 8 бит
Тип развёртки : Прогрессивная
Бит/(Пиксели*Кадры) : 0.124
Размер потока : 1,04 Гбайт (72%)
Библиотека кодирования : x264 core 120 r2164 da19765
Настройки программы : cabac=1 / ref=13 / deblock=1:-3:-3 / analyse=0x3:0x113 / me=umh / subme=9 / psy=1 / psy_rd=1.00:0.00 / mixed_ref=1 / me_range=48 / chroma_me=1 / trellis=2 / 8x8dct=1 / cqm=0 / deadzone=21,11 / fast_pskip=1 / chroma_qp_offset=-2 / threads=8 / sliced_threads=0 / nr=0 / decimate=1 / interlaced=0 / bluray_compat=0 / constrained_intra=0 / bframes=11 / b_pyramid=2 / b_adapt=1 / b_bias=0 / direct=3 / weightb=1 / open_gop=0 / weightp=2 / keyint=240 / keyint_min=22 / scenecut=40 / intra_refresh=0 / rc=2pass / mbtree=0 / bitrate=1756 / ratetol=1.0 / qcomp=0.60 / qpmin=10 / qpmax=51 / qpstep=4 / cplxblur=20.0 / qblur=0.5 / ip_ratio=1.40 / pb_ratio=1.30 / aq=1:1.00
Default : Да
Forced : Нет

Аудио #1
Идентификатор : 2
Формат : AC-3
Формат/Информация : Audio Coding 3
Расширение режима : CM (complete main)
Идентификатор кодека : A_AC3
Продолжительность : 1 ч. 27 м.
Вид битрейта : Постоянный
Битрейт : 192 Кбит/сек
Каналы : 2 канала
Расположение каналов : Front: L R
Частота : 48,0 КГц
Битовая глубина : 16 бит
Метод сжатия : С потерями
Размер потока : 120 Мбайт (8%)
Заголовок : Одноголосый закадровый (В. Штейн)
Язык : Russian
Default : Да
Forced : Нет

Аудио #2
Идентификатор : 3
Формат : AC-3
Формат/Информация : Audio Coding 3
Расширение режима : CM (complete main)
Идентификатор кодека : A_AC3
Продолжительность : 1 ч. 27 м.
Вид битрейта : Постоянный
Битрейт : 224 Кбит/сек
Каналы : 2 канала
Расположение каналов : Front: L R
Частота : 48,0 КГц
Битовая глубина : 16 бит
Метод сжатия : С потерями
Размер потока : 140 Мбайт (9%)
Заголовок : Одноголосый закадровый (А. Гаврилов)
Язык : Russian
Default : Нет
Forced : Нет

Аудио #3
Идентификатор : 4
Формат : AC-3
Формат/Информация : Audio Coding 3
Расширение режима : CM (complete main)
Идентификатор кодека : A_AC3
Продолжительность : 1 ч. 27 м.
Вид битрейта : Постоянный
Битрейт : 192 Кбит/сек
Каналы : 2 канала
Расположение каналов : Front: L R
Частота : 48,0 КГц
Битовая глубина : 16 бит
Метод сжатия : С потерями
Размер потока : 120 Мбайт (8%)
Заголовок : Оригинал
Язык : English
Default : Нет
Forced : Нет



Скачать Незваный.гость.Intruder.(Скотт.Спигел).[1989.ужасы.триллер.BDRip-AVC].[VO].torrent без регистрации
Золото ЗОЛОТАЯ РАЗДАЧА! СКАЧАННОЕ НЕ ЗАСЧИТЫВАЕТСЯ! Золото
Дата: Зарегистрирован   [ Тип: внутренний ] Как тут cкачать?
MAGNET ссылка
MAGNET ссылка


Скачать .torrent

15 KB

Статус: проверено DHT
Скачан: торрент - 136 раз, раздача полностью - 9 раз
Размер: 1,45 GB
Оценка:  5 (Голосов: 1)
Поблагодарили: 2
Поделиться ссылкой на эту раздачу с друзьями:
В контактеFacebookОдноклассникиTwitterLivejournalМой МирLiveinternet
 

 
Показать сообщения:    


Вы не можете начинать темы
Вы не можете отвечать на сообщения
Вы не можете редактировать свои сообщения
Вы не можете удалять свои сообщения
Вы не можете голосовать в опросах
Вы не можете прикреплять файлы к сообщениям
Вы можете скачивать файлы