Loading...
Error

Скачать Один день с моим сыном / Мой сын / A Day with My Son / My Son / Adeul (Джанг Джин / Jang Jin) [2007, драма, DVDRip] [VO] торрент без регистрации

 
Статистика раздачи
Размер:  1,37 GB   |    Скачан:  95 раз

Полного источника не было: 27 минут

 
Автор Сообщение

Jenek

[] 

Один день с моим сыном / Мой сын / A Day with My Son / My Son / Adeul
Страна: Южная Корея
Жанр: драма
Год выпуска: 2007
Продолжительность: 01:49:19
Перевод: Одноголосый закадровый Доп. инфо о переводе DeMon по переводу indiotka / форум ZnaemTolk
Cубтитры: нет
Режиссер: Джанг Джин / Jang Jin
В ролях: Ча Сын Вон / Cha Seung-won, Рю Деок Хван / Ryu Deok-hwan
Описание: Осужденному на пожизненное заключение Канг Сику, после 15 лет пребывания в тюрьме, разрешено один день провести на свободе. В этот единственный день бывший убийца встречается со своим 18-летним сыном. Они не помнят друг друга, но одиночество обоих - та объединяющая сила, что помогает понять и простить...



Сэмпл: http://multi-up.com/690148
Качество видео: DVDRip []
Формат видео: AVI
Видео: Xvid, 640x352, 16:9, 23.98fps, 1 334 Kbps
Аудио: Dolby AC3, 48000Hz, 448kbps, 6ch
Format : AVI
Format/Info : Audio Video Interleave
File size : 1.37 GiB
Duration : 1h 49mn
Overall bit rate : 1791 Kbps
Writing application : VirtualDubMod 1.5.10.2 (build 2540/release)
Writing library : VirtualDubMod build 2540/release
Video
Format : MPEG-4 Visual
Format profile : Streaming Video@L1
Format settings, BVOP : Yes
Format settings, QPel : No
Format settings, GMC : No warppoints
Format settings, Matrix : Default
Muxing mode : Packet Bitstream
Codec ID : XVID
Codec ID/Hint : XviD
Duration : 1h 49mn
Bit rate : 1334 Kbps
Width : 640 pixels
Height : 352 pixels
Display aspect ratio : 16/9
Frame rate : 23.976 fps
Resolution : 8 bits
Colorimetry : 4:2:0
Scan type : Progressive
Bits/(Pixel*Frame) : 0.247
Stream size : 1.02 GiB (74%)
Writing library : XviD 1.0.3 (UTC 2004-12-20)
Audio
Format : AC-3
Format/Info : Audio Coding 3
Codec ID : 2000
Duration : 1h 49mn
Bit rate mode : Constant
Bit rate : 448 Kbps
Channel(s) : 6 channels
Channel positions : Front: L C R, Rear: L R, LFE
Sampling rate : 48.0 KHz
Stream size : 350 MiB (25%)
Alignment : Split accross interleaves
Interleave, duration : 42 ms (1.00 video frame)
Interleave, preload duration : 500 ms



Скачать Один.день.с.моим.сыном.Мой.сын.A.Day.with.My.Son.My.Son.Adeul.(Джанг.Джин.Jang.Jin).[2007.драма.DVDRip].[VO].torrent без регистрации
Золото ЗОЛОТАЯ РАЗДАЧА! СКАЧАННОЕ НЕ ЗАСЧИТЫВАЕТСЯ! Золото
Дата: Зарегистрирован   [ Тип: внутренний ] Как тут cкачать?
MAGNET ссылка
MAGNET ссылка


Скачать .torrent

14 KB

Статус: проверено DHT
Скачан: торрент - 95 раз, раздача полностью - 2 раз
Размер: 1,37 GB
Оценка:  - (Голосов: 0)
Поблагодарили: 1
Поделиться ссылкой на эту раздачу с друзьями:
В контактеFacebookОдноклассникиTwitterLivejournalМой МирLiveinternet
 

 
Показать сообщения:    


Вы не можете начинать темы
Вы не можете отвечать на сообщения
Вы не можете редактировать свои сообщения
Вы не можете удалять свои сообщения
Вы не можете голосовать в опросах
Вы не можете прикреплять файлы к сообщениям
Вы можете скачивать файлы