Loading...
Error

Скачать Пасьянс Карлы / Игра Карлы / Karlas Kabale / Karla's World (Шарлотта Закс Боструп / Charlotte Sachs Bostrup) [2007, комедия, драма. семейный, DVDRip] [Sub Rus] торрент без регистрации

 
Статистика раздачи
Размер:  1,37 GB   |    Скачан:  98 раз
Сидов:  1  [  0 KB/s  ]  
 
Автор Сообщение

Jenek

[] 

Пасьянс Карлы / Игра Карлы / Karlas Kabale / Karla's World
Страна: Дания
Жанр: комедия, драма. семейный
Год выпуска: 2007
Продолжительность: 01:27:35
Перевод: Субтитры (kitmur)
Cубтитры: русские
Оригинальная аудиодорожка: датский
Режиссер: Шарлотта Закс Боструп / Charlotte Sachs Bostrup
В ролях: Елена Арндт-Йенсен, Николай Стёвринг Хансен, Йонатан Юл Вернер, Эллен Хиллингсё, Николай Коперникус, Аллан Ольсен и др.
Описание: У 10-летней Карлы накануне Рожества есть только одно сокровенное желание: сделать так, чтобы вся семья собралась вместе. Но это не очень-то легко, особенно если родители в разводе, новый муж мамы постоянно занят работой, а два младших брата девочки - сущие сорванцы, которые только и делают, что усложняют своими проделками и так не простую жизнь Карлы. Но когда папа Карлы, последняя надежда девочки провести нормально Рождество, не смог забрать ее к себе на праздник, Карла решает уйти из дома. Присоединившись к своему знакомому бездомному Бустеру и его чудаковатому помощнику Эйнару, Карла с помощью новых друзей постепенно осознает, что идеальных людей не бывает. И что семья, возможно, и есть самый лучший выигрыш в ее жизни.
Доп. информация: Информация о фильме на IMDB - http://www.imdb.com/title/tt0988106/
Релиз кинопортала Близзардкид.
Качество видео: DVDRip
Формат видео: AVI
Видео: 672x384 (1.75:1), 25 fps, XviD MPEG-4 ~1780 kbps avg, 0.28 bit/pixel
Аудио: 48 kHz, AC3 Dolby Digital, 3/2 (L,C,R,l,r) + LFE ch, ~448.00 kbps avg
Формат субтитров: softsub (SRT)
Общее
Полное имя : E:\SEED\Karlas Kabale (2007) rusub\Karlas Kabale (2007) rusub.avi
Формат : AVI
Формат/Информация : Audio Video Interleave
Размер файла : 1,37 Гбайт
Продолжительность : 1 ч. 27 м.
Общий поток : 2235 Кбит/сек
Программа кодирования : VirtualDubMod 1.5.4.1 (build 2178/release)
Библиотека кодирования : VirtualDubMod build 2178/release
Видео
Идентификатор : 0
Формат : MPEG-4 Visual
Профиль формата : Advanced Simple@L5
Параметр BVOP формата : 1
Параметр QPel формата : Нет
Параметр GMC формата : Без точки перехода
Параметр матрицы формата : Выборочная
Идентификатор кодека : XVID
Идентификатор кодека/Подсказка : XviD
Продолжительность : 1 ч. 27 м.
Битрейт : 1780 Кбит/сек
Ширина : 672 пикселя
Высота : 384 пикселя
Соотношение сторон : 16:9
Частота кадров : 25,000 кадров/сек
Цветовое пространство : YUV
Субдискретизация насыщенности : 4:2:0
Битовая глубина : 8 бит
Тип развёртки : Прогрессивная
Метод сжатия : С потерями
Бит/(Пиксели*Кадры) : 0.276
Размер потока : 1,09 Гбайт (80%)
Библиотека кодирования : XviD 58
Аудио
Идентификатор : 1
Формат : AC-3
Формат/Информация : Audio Coding 3
Расширение режима : CM (complete main)
Идентификатор кодека : 2000
Продолжительность : 1 ч. 27 м.
Вид битрейта : Постоянный
Битрейт : 448 Кбит/сек
Каналы : 6 каналов
Расположение каналов : Front: L C R, Side: L R, LFE
Частота : 48,0 КГц
Битовая глубина : 16 бит
Метод сжатия : С потерями
Размер потока : 281 Мбайт (20%)
Выравнивание : Разделение по промежуткам
Продолжительность промежутка : 96 мс. (2,40 видеокадра)
Время предзагрузки промежутка : 96 мс.
Язык : Danish
1
00:01:19,840 --> 00:01:24,197
<i>До Рождества осталось всего четыре дня,
и все с нетерпением ждут этого праздника.</i>
2
00:01:24,400 --> 00:01:26,868
<i>И я, разумеется, тоже.</i>
3
00:01:27,080 --> 00:01:30,709
<i>Но мне все равно грустно.</i>
4
00:01:30,920 --> 00:01:34,799
- Идем, Карла. Нам пора домой.
- А ты ничего не забыл?
5
00:01:35,000 --> 00:01:38,709
- Карла, идем!
- Разве мы не будем покупать елку?
6
00:01:44,280 --> 00:01:48,558
Хватит, Малыш.
Ты и сам можешь идти.
8
00:01:51,920 --> 00:01:55,708
- Спасибо. Счастливого Рождества!
- Вы сами справитесь?
9
00:01:55,920 --> 00:01:59,959
Карла, можешь мне помочь?
Малыш. Бери с другой стороны.
10
00:02:00,160 --> 00:02:04,597
- Посмотри сюда, Ляйф. Правда, красивые?
- Да, но нам уже пора идти.
11
00:02:04,800 --> 00:02:09,555
- Такие же красивые, как и я?
- Такие же. Пошли, Карла.
12
00:02:09,760 --> 00:02:12,558
- Счастливого Рождества!
- Счастливого Рождества!
13
00:02:13,520 --> 00:02:16,478
Тебе не кажется,
что она слишком маленькая?
11
00:02:18,560 --> 00:02:24,430
ПАСЬЯНС КАРЛЫ
14
00:02:29,880 --> 00:02:33,350
Может, ты мне поможешь?
Карла!
15
00:02:33,560 --> 00:02:36,233
Я готовлю подарок для Молли,
а она для меня.
16
00:02:36,440 --> 00:02:39,750
Мэдс Мортен!
Иди забери свою одежду.
17
00:02:39,960 --> 00:02:45,159
- Мам, а печь мы будем позже?
- Да-да, сразу же как у меня появится
на это время.
18
00:02:46,200 --> 00:02:51,399
<i>Моя мама постоянно нервничает.</i>
<i>Особенно перед такими праздниками,
как Рождество.</i>
19
00:02:51,600 --> 00:02:54,831
<i>Она хочет, чтобы в доме
было чисто и все такое.</i>
20
00:02:55,040 --> 00:02:59,318
Вы поедете к папе.
Это его выходные.



Скачать Пасьянс.Карлы.Игра.Карлы.Karlas.Kabale.Karla's.World.(Шарлотта.Закс.Боструп.Charlotte.Sachs.Bostrup).[2007.комедия.драма.семейный.DVDRip].[Sub.Rus].torrent без регистрации
Золото ЗОЛОТАЯ РАЗДАЧА! СКАЧАННОЕ НЕ ЗАСЧИТЫВАЕТСЯ! Золото
Дата: Зарегистрирован   [ Тип: внутренний ] Как тут cкачать?
MAGNET ссылка
MAGNET ссылка


Скачать .torrent

14 KB

Статус: проверено DHT
Скачан: торрент - 98 раз, раздача полностью - 1 раз
Размер: 1,37 GB
Оценка:  - (Голосов: 0)
Поблагодарили: 0
Поделиться ссылкой на эту раздачу с друзьями:
В контактеFacebookОдноклассникиTwitterLivejournalМой МирLiveinternet
 

 
Показать сообщения:    


Вы не можете начинать темы
Вы не можете отвечать на сообщения
Вы не можете редактировать свои сообщения
Вы не можете удалять свои сообщения
Вы не можете голосовать в опросах
Вы не можете прикреплять файлы к сообщениям
Вы можете скачивать файлы