Loading...
Error

Скачать Справочник настоящего мстителя / Guide de la petite vengeance (Жан-Франсуа Полуа / Jean-Francois Pouliot) [2006, Комедия, драма, DVDRip] [MVO[ торрент без регистрации

 
Статистика раздачи
Размер:  1,37 GB   |    Скачан:  100 раз
Сидов:  1  [  0 KB/s  ]  
 
Автор Сообщение

Jenek

[] 

Справочник настоящего мстителя / Guide de la petite vengeance
Страна: Канада
Жанр: Комедия, драма
Год выпуска: 2006
Продолжительность: 01:40:10
Перевод: Профессиональный (многоголосый закадровый)
Cубтитры: нет
Режиссер: Жан-Франсуа Полуа / Jean-Francois Pouliot
В ролях: Марк Белан, Габриэль Гаскон, Мишель Мюллер, Паскаль
Бюссьер, Маркита Буайе, Александр Кадьо, Сильвен Кэрриэр, Терри
Хейг, Винсент Леклерк, Эндрю Симмс
Описание: Бухгалтер ювелирного магазина решает взять себя в
руки и начать самому управлять своей жизнью. Первым делом ему не
терпится отомстить своему боссу-тирану, и он устраивает в магазине
взлом. Затем нужно разобраться с личной жизнью и попытаться вновь
завоевать любовь собственной жены.



Доп. информация: Исходник неизвестен
Сэмпл: http://multi-up.com/691142
Качество видео: DVDRip
Формат видео: AVI
Видео: 704x288 (2.44:1), 25 fps, XviD MPEG-4 1170 kbps, 0.23 bit/pixel
Аудио: 48 kHz, AC3, 6 ch, 384 kbps Rus
Аудио: 48 kHz, AC3, 6 ch, 384 kbps Fre
General
Complete name : D:\ВОТ\Guide de la petite vengeance 2006.avi
Format : AVI
Format/Info : Audio Video Interleave
File size : 1.37 GiB
Duration : 1h 40mn
Overall bit rate : 1 952 Kbps
Writing application : VirtualDubMod 1.5.10.2 (build 2540/release)
Writing library : VirtualDubMod build 2540/release
Video #0
ID : 0
Format : MPEG-4 Visual
Format profile : AdvancedSimple@L5
Format settings, BVOP : Yes
Format settings, QPel : No
Format settings, GMC : No warppoints
Format settings, Matrix : Default (MPEG)
Muxing mode : Packed bitstream
Codec ID : XVID
Codec ID/Hint : XviD
Duration : 1h 40mn
Bit rate : 1 170 Kbps
Width : 704 pixels
Height : 288 pixels
Display aspect ratio : 2.40:1
Frame rate : 25.000 fps
Resolution : 24 bits
Colorimetry : 4:2:0
Scan type : Progressive
Bits/(Pixel*Frame) : 0.231
Stream size : 838 MiB (60%)
Writing library : XviD 1.2.0.dev47 (UTC 2006-11-01)
Audio #1
ID : 1
Format : AC-3
Format/Info : Audio Coding 3
Codec ID : 2000
Duration : 1h 40mn
Bit rate mode : Constant
Bit rate : 384 Kbps
Channel(s) : 6 channels
Channel positions : Front: L C R, Surround: L R, LFE
Sampling rate : 48.0 KHz
Stream size : 275 MiB (20%)
Alignment : Split accross interleaves
Interleave, duration : 40 ms (1.00 video frame)
Interleave, preload duration : 500 ms
Audio #2
ID : 2
Format : AC-3
Format/Info : Audio Coding 3
Codec ID : 2000
Duration : 1h 40mn
Bit rate mode : Constant
Bit rate : 384 Kbps
Channel(s) : 6 channels
Channel positions : Front: L C R, Surround: L R, LFE
Sampling rate : 48.0 KHz
Stream size : 275 MiB (20%)
Alignment : Split accross interleaves
Interleave, duration : 40 ms (1.00 video frame)
Interleave, preload duration : 500 ms



Скачать Справочник.настоящего.мстителя.Guide.de.la.petite.vengeance.(Жан-Франсуа.Полуа.Jean-Francois.Pouliot).[2006.Комедия.драма.DVDRip].[MVO[.torrent без регистрации
Золото ЗОЛОТАЯ РАЗДАЧА! СКАЧАННОЕ НЕ ЗАСЧИТЫВАЕТСЯ! Золото
Дата: Зарегистрирован   [ Тип: внутренний ] Как тут cкачать?
MAGNET ссылка
MAGNET ссылка


Скачать .torrent

14 KB

Статус: проверено DHT
Скачан: торрент - 100 раз, раздача полностью - 16 раз
Размер: 1,37 GB
Оценка:  - (Голосов: 0)
Поблагодарили: 1
Поделиться ссылкой на эту раздачу с друзьями:
В контактеFacebookОдноклассникиTwitterLivejournalМой МирLiveinternet
 

 
Показать сообщения:    


Вы не можете начинать темы
Вы не можете отвечать на сообщения
Вы не можете редактировать свои сообщения
Вы не можете удалять свои сообщения
Вы не можете голосовать в опросах
Вы не можете прикреплять файлы к сообщениям
Вы можете скачивать файлы