Loading...
Error

Скачать Отчаянные домохозяйки /Desperate Housewives 4 (Сезон 4, Полностью, серии 1-17) [2007, комедия, драма, WEB-DL] [720p] (Дубляж) торрент без регистрации

 
Статистика раздачи
Размер:  23,94 GB   |    Скачан:  709 раз
Сидов:  1  [  0 KB/s  ]  
 
Автор Сообщение

МихаНЕзатор

[] 

Отчаянные домохозяйки / Сезон: 4 / Серии: 1-17 из 17
Desperate Housewives 4


Год выпуска: 2008
Страна: США
Жанр: Комедия, Драма
Продолжительность: ~00:43:00 серия
Перевод: Полное дублирование (тк Домашний)
Русские субтитры: нет
Субтитры: нет

Режиссёр: Marc Cherry

В ролях: Teri Hatcher, Felicity Huffman, Marcia Cross, Eva Longoria Parker, Eva Longoria Parker, Ricardo Chavira, Andrea Bowen, Doug Savant, Kyle MacLachlan, Dana Delany, Brenda Strong, James Denton,
Shawn Pyfrom, Lyndsy Fonseca, Brent Kinsman

Описание: Самые роковые женщины Америки - героини американского комедийного сериала отложив фартуки и швабры, продолжают покорять сердца мужчин и зрителей всего мира! Что нового в тихом квартале Вистерия лейн, где живут четыре главные героини сериала: Сьюзан, Бри, Габриель и Линнет? Всё те же великолепные газоны, открыточные домики, счастливые семьи - характерные признаки одноэтажной Америки. А за фасадом этого мнимого благополучия продолжается ожесточенная война за власть, солдаты в которой - мужья, любовники, соседи, дети и, конечно же, сами отчаянные домохозяйки! В новых сериях в тихом квартале Вистерия Лейн творится полный беспредел


Качество: WEB-DL 720p (iTunes)
Формат: MKV
Видео кодек: H.264
Аудио кодек: AC3
Видео: 1280x720 at 23.976 fps, x264@L3.1, Bits/(Pixel*Frame) : 0.178, ~3931Kbps avg
Аудио 1: Русский, AC3 Dolby Digital, 48 kHz, 2 ch, 192.000 kbps - Дубляж
Аудио 2: Английский, AC3 Dolby Digital, 48 kHz, 6 ch, 384.000 kbps - Оригинал
F:\Desperate.Housewives.S04.720p.WEB-DL.Rus..Eng\Desperate.Housewives.S04E01.720p.WEB-DL.Rus.Eng.mkv
General
Complete name : F:\Desperate.Housewives.S04.720p.WEB-DL.Rus..Eng\Desperate.Housewives.S04E01.720p.WEB-DL.Rus.Eng.mkv
Format : Matroska
File size : 1.36 GiB
Duration : 43mn 32s
Overall bit rate : 4 480 Kbps
Movie name : -TjHD
Encoded date : UTC 2010-10-07 10:07:57
Writing application : mkvmerge v3.4.0 ('Rapunzel') сборка от May 15 2010 09:38:20
Writing library : libebml v0.8.0 + libmatroska v0.9.0
Video #1
ID : 1
Format : AVC
Format/Info : Advanced Video Codec
Format profile : High@L3.1
Format settings, CABAC : No
Format settings, ReFrames : 2 frames
Muxing mode : Container profile=Unknown@3.1
Codec ID : V_MPEG4/ISO/AVC
Duration : 43mn 29s
Bit rate : 3 815 Kbps
Width : 1 280 pixels
Height : 720 pixels
Display aspect ratio : 16:9
Frame rate : 23.976 fps
Resolution : 24 bits
Colorimetry : 4:2:0
Scan type : Progressive
Bits/(Pixel*Frame) : 0.173
Stream size : 1.16 GiB (85%)
Title : Now.You.Know
Language : English
colour_primaries : BT.709-5, BT.1361, IEC 61966-2-4, SMPTE RP177
transfer_characteristics : BT.709-5, BT.1361
matrix_coefficients : BT.709-5, BT.1361, IEC 61966-2-4 709, SMPTE RP177
Audio #2
ID : 2
Format : AC-3
Format/Info : Audio Coding 3
Codec ID : A_AC3
Duration : 43mn 32s
Bit rate mode : Constant
Bit rate : 192 Kbps
Channel(s) : 2 channels
Channel positions : L R
Sampling rate : 48.0 KHz
Stream size : 59.8 MiB (4%)
Title : RUS Dub 2.0
Language : Russian
Audio #3
ID : 3
Format : AC-3
Format/Info : Audio Coding 3
Codec ID : A_AC3
Duration : 43mn 32s
Bit rate mode : Constant
Bit rate : 384 Kbps
Channel(s) : 6 channels
Channel positions : Front: L C R, Surround: L R, LFE
Sampling rate : 48.0 KHz
Stream size : 120 MiB (9%)
Title : DD 5.1 384Kbps
Language : English





Скачать Отчаянные.домохозяйки.Desperate.Housewives.4.(Сезон.4.Полностью.серии.1-17).[2007.комедия.драма.WEB-DL].[720p].(Дубляж).torrent без регистрации
Золото ЗОЛОТАЯ РАЗДАЧА! СКАЧАННОЕ НЕ ЗАСЧИТЫВАЕТСЯ! Золото
Дата: Зарегистрирован   [ Тип: внутренний ] Как тут cкачать?
MAGNET ссылка
MAGNET ссылка


Скачать .torrent

122 KB

Статус: проверено DHT
Скачан: торрент - 709 раз, раздача полностью - 389 раз
Размер: 23,94 GB
Оценка:  5 (Голосов: 1)
Поблагодарили: 1
Поделиться ссылкой на эту раздачу с друзьями:
В контактеFacebookОдноклассникиTwitterLivejournalМой МирLiveinternet
 

 
Показать сообщения:    


Вы не можете начинать темы
Вы не можете отвечать на сообщения
Вы не можете редактировать свои сообщения
Вы не можете удалять свои сообщения
Вы не можете голосовать в опросах
Вы не можете прикреплять файлы к сообщениям
Вы можете скачивать файлы