Loading...
Error

Скачать Отчаянные домохозяйки / Desperate Housewives 5 (сезон 5, полностью, серии 24) [2008, комедия, драма, WEB-DL] [720p] (Дубляж) торрент без регистрации

 
Статистика раздачи
Размер:  34,06 GB   |    Скачан:  853 раза
Сидов:  1  [  0 KB/s  ]  
 
Автор Сообщение

МихаНЕзатор

[] 

Отчаянные Домохозяйки / Desperate Housewives
Сезон: 5 / Серии: 1-24 из 24


Год выпуска: 2008
Страна: США
Жанр: Комедия, драма
Продолжительность: ~00:43:00
Перевод: Полное Дублирование (Невафильм, тк Домашний)
Русские субтитры: нет

Режиссёр: Роберт Данкан МакНейлл

В ролях: Тери Хэтчер, Фелисити Хаффман, Марсия Кросс, Эва Лонгориа, Николлетт Шеридан, Элфри Вудард, Марк Моузес, Андреа Бауэн, Даг Сэвант, Ричард Берджи, Бренда Стронг, Стивен Калп

Описание: Это история о пятерых разных, не похожих друг на друга, женщинах. Объединило их в жизни соседство, переросшее в дружбу.
Сериал захватывает и интригует с первого эпизода. Красивая улица под названием Вистерия-Лейн, ухоженные газоны, симпатичные домики, улыбки, безмятежность и благополучие. А за кулисами — убийство, преследование и тайны, тайны, тайны, которые рано или поздно становятся явными. У каждой героини можно чему-нибудь научиться. Их не берут ни измены, ни болезни, ни стихийные бедствия. Они не отчаиваются и за это вознаграждаются судьбой.

Качество: WEB-DL 720p (iTunes)
Формат: MKV
Видео кодек: H.264
Аудио кодек: AC3
Видео: 1280x720 at 23.976 fps, x264@L3.1, Bits/(Pixel*Frame) : 0.180, ~4000 Kbps avg
Аудио 1: Русский, AC3 Dolby Digital, 48 kHz, 2 ch, 192.000 kbps - Дубляж
Аудио 2: Английский, AC3 Dolby Digital, 48 kHz, 6 ch, 384.000 kbps - Оригинал
F:\РАЗДАЧИ\Desperate.Housewives.S05.720p.WEB-DL.Rus.Eng\Desperate.Housewives.S05E01.720p.WEB-DL.Rus.Eng.mkv
General
Complete name : F:\РАЗДАЧИ\Desperate.Housewives.S05.720p.WEB-DL.Rus.Eng\Desperate.Housewives.S05E01.720p.WEB-DL.Rus.Eng.mkv
Format : Matroska
File size : 1.41 GiB
Duration : 43mn 30s
Overall bit rate : 4 653 Kbps
Movie name : Desperate.Housewives.S05E01
Encoded date : UTC 2010-11-15 08:37:46
Writing application : mkvmerge v3.4.0 ('Rapunzel') сборка от May 15 2010 09:38:20
Writing library : libebml v0.8.0 + libmatroska v0.9.0
Video #1
ID : 1
Format : AVC
Format/Info : Advanced Video Codec
Format profile : High@L3.1
Format settings, CABAC : No
Format settings, ReFrames : 2 frames
Format settings, GOP : M=2, N=26
Muxing mode : Container profile=Unknown@3.1
Codec ID : V_MPEG4/ISO/AVC
Duration : 43mn 30s
Bit rate mode : Variable
Bit rate : 3 984 Kbps
Width : 1 280 pixels
Height : 720 pixels
Display aspect ratio : 16:9
Frame rate : 23.976 fps
Color space : YUV
Chroma subsampling : 4:2:0
Bit depth : 8 bits
Scan type : Progressive
Bits/(Pixel*Frame) : 0.180
Stream size : 1.21 GiB (86%)
Title : You're.Gonna.Love.Tomorrow
Language : English
Color primaries : BT.709-5, BT.1361, IEC 61966-2-4, SMPTE RP177
Transfer characteristics : BT.709-5, BT.1361
Matrix coefficients : BT.709-5, BT.1361, IEC 61966-2-4 709, SMPTE RP177
Audio #2
ID : 2
Format : AC-3
Format/Info : Audio Coding 3
Mode extension : CM (complete main)
Codec ID : A_AC3
Duration : 43mn 30s
Bit rate mode : Constant
Bit rate : 192 Kbps
Channel(s) : 2 channels
Channel positions : Front: L R
Sampling rate : 48.0 KHz
Bit depth : 16 bits
Stream size : 59.7 MiB (4%)
Title : RUS Dub 2.0
Language : Russian
Audio #3
ID : 3
Format : AC-3
Format/Info : Audio Coding 3
Mode extension : CM (complete main)
Codec ID : A_AC3
Duration : 43mn 30s
Bit rate mode : Constant
Bit rate : 384 Kbps
Channel(s) : 6 channels
Channel positions : Front: L C R, Side: L R, LFE
Sampling rate : 48.0 KHz
Bit depth : 16 bits
Stream size : 119 MiB (8%)
Title : ENG 5.1
Language : English





Скачать Отчаянные.домохозяйки.Desperate.Housewives.5.(сезон.5.полностью.серии.24).[2008.комедия.драма.WEB-DL].[720p].(Дубляж).torrent без регистрации
Золото ЗОЛОТАЯ РАЗДАЧА! СКАЧАННОЕ НЕ ЗАСЧИТЫВАЕТСЯ! Золото
Дата: Зарегистрирован   [ Тип: внутренний ] Как тут cкачать?
MAGNET ссылка
MAGNET ссылка


Скачать .torrent

173 KB

Статус: проверено DHT
Скачан: торрент - 853 раз, раздача полностью - 320 раз
Размер: 34,06 GB
Оценка:  5 (Голосов: 1)
Поблагодарили: 1
Поделиться ссылкой на эту раздачу с друзьями:
В контактеFacebookОдноклассникиTwitterLivejournalМой МирLiveinternet
 

 
Показать сообщения:    


Вы не можете начинать темы
Вы не можете отвечать на сообщения
Вы не можете редактировать свои сообщения
Вы не можете удалять свои сообщения
Вы не можете голосовать в опросах
Вы не можете прикреплять файлы к сообщениям
Вы можете скачивать файлы