Loading...
Error

Скачать Ловушка на Луне / Moontrap (Роберт Дайк) [1989, ужасы, фантастика, DVDRip] [AVO] торрент без регистрации

 
Статистика раздачи
Размер:  1,46 GB   |    Скачан:  143 раза
Сидов:  1  [  0 KB/s  ]  
 
Автор Сообщение

leon030982

[] 

Ловушка на Луне / Moontrap

«For fourteen thousand years... It waited»
Страна: США
Жанр: ужасы, фантастика
Год выпуска: 1989
Продолжительность: 01:30:29
Рейтинг MMPA:
Перевод: Авторский (одноголосый закадровый) [Сергей Кузнецов]
Cубтитры: нет
Режиссер: Роберт Дайк / Robert Dyke
В ролях: Уолтер Кениг, Брюс Кэмпбелл, Ли Ломбарди, Джон Дж. Саундерс, Ривис Грэхэм, Том Кейс, Джуди Левитт, Даг Чайлдз
Описание: Парочка астронавтов НАСА в своём очередном полёте обнаруживает космический корабль неземного происхождения, курсирующего по орбите между нашей планетой и Луной. Внутри него они находят иссохший труп человекообразного существа и яйцеообразное металлическое устройство.


Качество видео
: DVDRip [исходник DVD5 R1]
Формат видео: AVI
Видео: Xvid, 640x480, 23,98 fps, 2120 kbps, 0.28 bit/pixel
Аудио: MPEG Audio Layer 3, 48 kHz, 192 kbps, 2/0 (L,R) ch
General
Complete name : Moontrap.1989.DVDRip.Xvid-Zombie.Lee.avi
Format : AVI
Format/Info : Audio Video Interleave
File size : 1.46 GiB
Duration : 1h 30mn
Overall bit rate : 2 304 Kbps
Writing library : VirtualDub build 33790/release
Video
ID : 0
Format : MPEG-4 Visual
Format profile : Advanced Simple@L5
Format settings, BVOP : 1
Format settings, QPel : No
Format settings, GMC : No warppoints
Format settings, Matrix : Custom
Codec ID : XVID
Codec ID/Hint : XviD
Duration : 1h 30mn
Bit rate : 2 102 Kbps
Width : 640 pixels
Height : 480 pixels
Display aspect ratio : 4:3
Frame rate : 23.976 fps
Color space : YUV
Chroma subsampling : 4:2:0
Bit depth : 8 bits
Scan type : Progressive
Compression mode : Lossy
Bits/(Pixel*Frame) : 0.285
Stream size : 1.33 GiB (91%)
Writing library : XviD 65
Audio
ID : 1
Format : MPEG Audio
Format version : Version 1
Format profile : Layer 3
Mode : Joint stereo
Codec ID : 55
Codec ID/Hint : MP3
Duration : 1h 30mn
Bit rate mode : Constant
Bit rate : 192 Kbps
Channel(s) : 2 channels
Sampling rate : 48.0 KHz
Compression mode : Lossy
Stream size : 124 MiB (8%)
Alignment : Split accross interleaves
Interleave, duration : 42 ms (1.00 video frame)
Interleave, preload duration : 500 ms



Скачать Ловушка.на.Луне.Moontrap.(Роберт.Дайк).[1989.ужасы.фантастика.DVDRip].[AVO].torrent без регистрации
Золото ЗОЛОТАЯ РАЗДАЧА! СКАЧАННОЕ НЕ ЗАСЧИТЫВАЕТСЯ! Золото
Дата: Зарегистрирован   [ Тип: внутренний ] Как тут cкачать?
MAGNET ссылка
MAGNET ссылка


Скачать .torrent

15 KB

Статус: проверено DHT
Скачан: торрент - 143 раз, раздача полностью - 72 раз
Размер: 1,46 GB
Оценка:  - (Голосов: 0)
Поблагодарили: 2
Поделиться ссылкой на эту раздачу с друзьями:
В контактеFacebookОдноклассникиTwitterLivejournalМой МирLiveinternet
 

 
Показать сообщения:    


Вы не можете начинать темы
Вы не можете отвечать на сообщения
Вы не можете редактировать свои сообщения
Вы не можете удалять свои сообщения
Вы не можете голосовать в опросах
Вы не можете прикреплять файлы к сообщениям
Вы можете скачивать файлы